Правила форума

  • В этом разделе создание новых тем Запрещено.
  • Для создания новых тем пользуйтесь Корневым разделом DVD и HD фильмы.
Начать новую темуОтветить на тему  [ Сообщений: 3 ] 
Торрент файл
Размер: 93.5 GB • Зарегистрирован: 4 года 8 месяцев • Статус: Проверено
Скачан: 9 раз • Желающих скачать: 0 • Поблагодарили: 8 раз
 Раздают: 0  |  0 KB/s  ]   Качают: 0  |  0 KB/s  ] 
 Полного источника не было 2 года 4 месяца 
Сообщения
 Добавлено: 2012-04-05 09:34
Модератор релиз-группы
Аватара пользователя
Стаж: 9 лет 1 месяц
Возраст: 97
Сообщений: 11660
Спасибок: 6532
Лайков: 269
Кошмар на улице Вязов. КОЛЛЕКЦИЯ / A Nightmare on Elm Street. COLLECTION

Изображение

Кошмар на улице Вязов / A Nightmare on Elm Street
Кошмар на улице Вязов / A Nightmare on Elm Street

Изображение

Год выпуска: 1984
Страна: США
Жанр: ужасы
Продолжительность: 01:31:14
Перевод: Профессиональный (многоголосый, закадровый) Позитив / Киномания / CP Digital
Профессиональный (двухголосый, закадровый) НТВ
Авторский (одноголосый, закадровый) Гаврилов / Горчаков / Володарский
Субтитры: русские (x2), английские

Режиссер: Уэс Крэйвен / Wes Craven

В ролях: Хезер Лэнгенкэмп, Рони Блейкли, Джон Сэксон, Аманда Уайсс, Роберт Инглунд, Джонни Депп, Чарльз Флайшер, Джозеф Випп, Джейсу Гарсия, Лин Шэй, Джо Ангер

Описание: Старшеклассников одной из школ Спрингвуда, преследует один и тот же кошмарный сон в котором за ними гонится и кромсает на куски изуродованный человек в шляпе и с ножами на своей перчатке. И тот, кого убили во сне — умирает в реальности… Оказывается много лет назад, герой сна — Фредди Крюгер был маньяком, совершившим несколько зверских убийств детей. Их родители, не дожидаясь суда, линчевали Фредди, спалив заживо в котельной. И теперь Фредди пришел отомстить…
Качество: BDRip 1080p
Формат: MKV
Видео: MPEG4/AVC 13000 kbps / 1920х1080 / 23,976 fps / High Profile 4.1
Аудио: DTS Russian 5.1 / 48 kHz / 1510 kbps / 24-bit [Позитив]
Аудио: Dolby Digital Audio Russian 2.0 / 48 kHz / 192 kbps [НТВ]
Аудио: DTS Russian 5.1 / 48 kHz / 1510 kbps / 24-bit [Киномания]
Аудио: DTS Russian 5.1 / 48 kHz / 1510 kbps / 24-bit [CP Digital]
Аудио: DTS Russian 5.1 / 48 kHz / 1510 kbps / 24-bit [Гаврилов]
Аудио: Dolby Digital Audio Russian 2.0 / 48 kHz / 192 kbps [Горчаков]
Аудио: Dolby Digital Audio Russian 2.0 / 48 kHz / 192 kbps [Володарский]
Аудио: DTS English 5.1 / 48 kHz / 1510 kbps / 24-bit)
скриншоты
Изображение

Изображение

Изображение
Свернуть
Mi
Формат : Matroska
Версия формата : Version 2
Размер файла : 13,5 Гбайт
Продолжительность : 1 ч. 31 м.
Общий поток : 21,1 Мбит/сек
Название фильма : A.Nightmare.on.Elm.Street.1984.1080p.Bluray.VC1.Remux
Дата кодирования : UTC 2012-01-03 18:22:10
Программа кодирования : mkvmerge v5.2.1 ('A Far Off Place') built on Jan 2 2012 23:21:10
Библиотека кодирования : libebml v1.2.3 + libmatroska v1.3.0

Видео
Идентификатор : 1
Формат : AVC
Формат/Информация : Advanced Video Codec
Профиль формата : High@L4.1
Параметр CABAC формата : Да
Параметр ReFrames формата : 4 кадра
Идентификатор кодека : V_MPEG4/ISO/AVC
Продолжительность : 1 ч. 31 м.
Битрейт : 13,0 Мбит/сек
Ширина : 1920 пикселей
Высота : 1080 пикселей
Соотношение сторон : 16:9
Частота кадров : 23,976 кадра/сек
Цветовое пространство : YUV
Субдискретизация насыщенности : 4:2:0
Битовая глубина : 8 бит
Тип развёртки : Прогрессивная
Бит/(Пиксели*Кадры) : 0.261
Размер потока : 8,02 Гбайт (60%)
Библиотека кодирования : x264 core 115 r1936 7a9e08d
Настройки программы : cabac=1 / ref=4 / deblock=1:-1:-1 / analyse=0x3:0x113 / me=umh / subme=10 / psy=1 / psy_rd=1.00:0.10 / mixed_ref=1 / me_range=24 / chroma_me=1 / trellis=2 / 8x8dct=1 / cqm=0 / deadzone=21,11 / fast_pskip=0 / chroma_qp_offset=-3 / threads=9 / sliced_threads=0 / nr=0 / decimate=1 / interlaced=0 / bluray_compat=0 / constrained_intra=0 / bframes=14 / b_pyramid=2 / b_adapt=2 / b_bias=0 / direct=3 / weightb=1 / open_gop=0 / weightp=2 / keyint=250 / keyint_min=23 / scenecut=40 / intra_refresh=0 / rc_lookahead=50 / rc=2pass / mbtree=1 / bitrate=13000 / ratetol=1.0 / qcomp=0.70 / qpmin=0 / qpmax=69 / qpstep=4 / cplxblur=20.0 / qblur=0.5 / ip_ratio=1.40 / aq=1:1.00
Язык : English

Аудио #1
Идентификатор : 2
Формат : DTS
Формат/Информация : Digital Theater Systems
Идентификатор кодека : A_DTS
Продолжительность : 1 ч. 31 м.
Вид битрейта : Постоянный
Битрейт : 1510 Кбит/сек
Каналы : 6 каналов
Расположение каналов : Front: L C R, Side: L R, LFE
Частота : 48,0 КГц
Битовая глубина : 24 бит
Метод сжатия : С потерями
Размер потока : 985 Мбайт (7%)
Заголовок : Pozitiv, DTS, 6 ch
Язык : Russian

Аудио #2
Идентификатор : 3
Формат : AC-3
Формат/Информация : Audio Coding 3
Расширение режима : CM (complete main)
Идентификатор кодека : A_AC3
Продолжительность : 1 ч. 31 м.
Вид битрейта : Постоянный
Битрейт : 192 Кбит/сек
Каналы : 2 канала
Расположение каналов : Front: L R
Частота : 48,0 КГц
Битовая глубина : 16 бит
Метод сжатия : С потерями
Размер потока : 125 Мбайт (1%)
Заголовок : NTV, AC3, 2 ch
Язык : Russian

Аудио #3
Идентификатор : 4
Формат : DTS
Формат/Информация : Digital Theater Systems
Идентификатор кодека : A_DTS
Продолжительность : 1 ч. 31 м.
Вид битрейта : Постоянный
Битрейт : 1510 Кбит/сек
Каналы : 6 каналов
Расположение каналов : Front: L C R, Side: L R, LFE
Частота : 48,0 КГц
Битовая глубина : 24 бит
Метод сжатия : С потерями
Размер потока : 985 Мбайт (7%)
Заголовок : Kinomaniya, DTS, 6 ch
Язык : Russian

Аудио #4
Идентификатор : 5
Формат : DTS
Формат/Информация : Digital Theater Systems
Идентификатор кодека : A_DTS
Продолжительность : 1 ч. 31 м.
Вид битрейта : Постоянный
Битрейт : 1510 Кбит/сек
Каналы : 6 каналов
Расположение каналов : Front: L C R, Side: L R, LFE
Частота : 48,0 КГц
Битовая глубина : 24 бит
Метод сжатия : С потерями
Размер потока : 985 Мбайт (7%)
Заголовок : CP Digital, DTS, 6 ch
Язык : Russian

Аудио #5
Идентификатор : 6
Формат : DTS
Формат/Информация : Digital Theater Systems
Идентификатор кодека : A_DTS
Продолжительность : 1 ч. 31 м.
Вид битрейта : Постоянный
Битрейт : 1510 Кбит/сек
Каналы : 6 каналов
Расположение каналов : Front: L C R, Side: L R, LFE
Частота : 48,0 КГц
Битовая глубина : 24 бит
Метод сжатия : С потерями
Размер потока : 985 Мбайт (7%)
Заголовок : Gavrilov, DTS, 6 ch
Язык : Russian

Аудио #6
Идентификатор : 7
Формат : AC-3
Формат/Информация : Audio Coding 3
Расширение режима : CM (complete main)
Идентификатор кодека : A_AC3
Продолжительность : 1 ч. 31 м.
Вид битрейта : Постоянный
Битрейт : 192 Кбит/сек
Каналы : 2 канала
Расположение каналов : Front: L R
Частота : 48,0 КГц
Битовая глубина : 16 бит
Метод сжатия : С потерями
Размер потока : 125 Мбайт (1%)
Заголовок : Gorchakov, AC3, 2 ch
Язык : Russian

Аудио #7
Идентификатор : 8
Формат : AC-3
Формат/Информация : Audio Coding 3
Расширение режима : CM (complete main)
Идентификатор кодека : A_AC3
Продолжительность : 1 ч. 31 м.
Вид битрейта : Постоянный
Битрейт : 192 Кбит/сек
Каналы : 2 канала
Расположение каналов : Front: L R
Частота : 48,0 КГц
Битовая глубина : 16 бит
Метод сжатия : С потерями
Размер потока : 125 Мбайт (1%)
Заголовок : Volodarskiy, AC3, 2 ch
Язык : Russian

Аудио #8
Идентификатор : 9
Формат : DTS
Формат/Информация : Digital Theater Systems
Идентификатор кодека : A_DTS
Продолжительность : 1 ч. 31 м.
Вид битрейта : Постоянный
Битрейт : 1510 Кбит/сек
Каналы : 6 каналов
Расположение каналов : Front: L C R, Side: L R, LFE
Частота : 48,0 КГц
Битовая глубина : 24 бит
Метод сжатия : С потерями
Размер потока : 985 Мбайт (7%)
Заголовок : English, DTS, 6 ch
Язык : English

Текст #1
Идентификатор : 10
Формат : UTF-8
Идентификатор кодека : S_TEXT/UTF8
Идентификатор кодека/Информация : UTF-8 Plain Text
Заголовок : Kinomaniya
Язык : Russian

Текст #2
Идентификатор : 11
Формат : UTF-8
Идентификатор кодека : S_TEXT/UTF8
Идентификатор кодека/Информация : UTF-8 Plain Text
Заголовок : CP Digital
Язык : Russian

Текст #3
Идентификатор : 12
Формат : UTF-8
Идентификатор кодека : S_TEXT/UTF8
Идентификатор кодека/Информация : UTF-8 Plain Text
Заголовок : English
Язык : English

Меню
00:00:00.000 : en:00:00:00.000
00:03:35.590 : en:00:03:35.590
00:05:51.434 : en:00:05:51.434
00:08:10.990 : en:00:08:10.990
00:10:44.018 : en:00:10:44.018
00:14:48.054 : en:00:14:48.054
00:18:26.689 : en:00:18:26.689
00:20:27.643 : en:00:20:27.643
00:23:06.343 : en:00:23:06.343
00:29:27.432 : en:00:29:27.432
00:31:39.856 : en:00:31:39.856
00:34:22.894 : en:00:34:22.894
00:37:03.388 : en:00:37:03.388
00:43:13.424 : en:00:43:13.424
00:47:28.971 : en:00:47:28.971
00:51:29.712 : en:00:51:29.712
00:56:19.543 : en:00:56:19.543
00:58:51.528 : en:00:58:51.528
01:02:59.693 : en:01:02:59.693
01:08:02.370 : en:01:08:02.370
01:11:49.514 : en:01:11:49.514
01:15:34.655 : en:01:15:34.655
01:21:04.693 : en:01:21:04.693
01:25:26.038 : en:01:25:26.038
01:29:06.591 : en:01:29:06.591
Свернуть
Свернуть

Кошмар на улице Вязов 2: Месть Фредди / A Nightmare on Elm Street Part 2: Freddy's Revenge
Кошмар на улице Вязов 2: Месть Фредди / A Nightmare on Elm Street Part 2: Freddy's Revenge

Изображение


Год выпуска: 1985
Страна: США
Жанр: ужасы
Продолжительность: 1:25:37
Перевод: Профессиональный (многоголосый, закадровый) Позитив / Киномания / CP Digital
Перевод: Профессиональный (двухголосый, закадровый) НТВ
Перевод: Авторский (одноголосый, закадровый) Гаврилов / Горчаков
Субтитры: русские (x2), английские

Режиссер: Джек Шолдер / Jack Sholder

В ролях: Марк Паттон, Ким Майерс, Клу Гулагер, Хоуп Лэнг, Маршалл Белл, Мелинда О. Фи, Том МакФедден, Сидни Уолш, Роберт Раслер, Эдвард Блэкофф

Описание: Спустя пять лет в дом, где подростков преследовали кошмары с кровавым убийцей, въезжает новая семья, ничего не подозревающая о дурной славе этого коттеджа. Фрэдди Крюгер вновь возникает в снах юного Джесси Уэлма и пытается завладеть не только его мозгом, но и телом. Подружка Джесси, Лиза, надеется помочь ему избавиться от навязчивого видения. Замечательные спецэффекты и пиротехника обеспечили фильму кассовый успех.
Качество: BDRip 1080p
Формат: MKV
Видео: MPEG-4/AVC 13500 kbps 1920x1080p / 23,976 fps / High Profile 4.1
Аудио: DTS Russian 5.1 / 48 kHz / 1509 kbps / 24-bit [Позитив]
Аудио: Dolby Digital Audio Russian 2.0 / 48 kHz / 192 kbps [НТВ]
Аудио: DTS Russian 5.1 / 48 kHz / 1509 kbps / 24-bit [Киномания]
Аудио: DTS Russian 5.1 / 48 kHz / 1509 kbps / 24-bit [CP Digital]
Аудио: DTS Russian 5.1 / 48 kHz / 1509 kbps / 24-bit [Гаврилов]
Аудио: Dolby Digital Audio Russian 2.0 / 48 kHz / 192 kbps [Горчаков]
Аудио: DTS English 5.1 / 48 kHz / 1509 kbps / 24-bit
скриншоты
Изображение

Изображение

Изображение
Свернуть
Mi
Формат : Matroska
Версия формата : Version 2
Размер файла : 12,8 Гбайт
Продолжительность : 1 ч. 25 м.
Общий поток : 21,4 Мбит/сек
Название фильма : Nightmare.on.Elm.Street.2.1985.1080p.Bluray.AVC.Remux
Дата кодирования : UTC 2012-01-05 16:11:05
Программа кодирования : mkvmerge v5.2.1 ('A Far Off Place') built on Jan 2 2012 23:21:10
Библиотека кодирования : libebml v1.2.3 + libmatroska v1.3.0

Видео
Идентификатор : 1
Формат : AVC
Формат/Информация : Advanced Video Codec
Профиль формата : High@L4.1
Параметр CABAC формата : Да
Параметр ReFrames формата : 4 кадра
Идентификатор кодека : V_MPEG4/ISO/AVC
Продолжительность : 1 ч. 25 м.
Битрейт : 13,5 Мбит/сек
Ширина : 1920 пикселей
Высота : 1080 пикселей
Соотношение сторон : 16:9
Частота кадров : 23,976 кадра/сек
Цветовое пространство : YUV
Субдискретизация насыщенности : 4:2:0
Битовая глубина : 8 бит
Тип развёртки : Прогрессивная
Бит/(Пиксели*Кадры) : 0.272
Размер потока : 7,82 Гбайт (61%)
Библиотека кодирования : x264 core 115 r1936 7a9e08d
Настройки программы : cabac=1 / ref=4 / deblock=1:-1:-1 / analyse=0x3:0x133 / me=umh / subme=10 / psy=1 / psy_rd=1.00:0.10 / mixed_ref=1 / me_range=24 / chroma_me=1 / trellis=2 / 8x8dct=1 / cqm=0 / deadzone=21,11 / fast_pskip=0 / chroma_qp_offset=-3 / threads=9 / sliced_threads=0 / nr=0 / decimate=1 / interlaced=0 / bluray_compat=0 / constrained_intra=0 / bframes=12 / b_pyramid=2 / b_adapt=2 / b_bias=0 / direct=3 / weightb=1 / open_gop=0 / weightp=2 / keyint=250 / keyint_min=23 / scenecut=40 / intra_refresh=0 / rc_lookahead=50 / rc=2pass / mbtree=1 / bitrate=13500 / ratetol=1.0 / qcomp=0.70 / qpmin=0 / qpmax=69 / qpstep=4 / cplxblur=20.0 / qblur=0.5 / ip_ratio=1.40 / aq=1:1.00
Язык : English

Аудио #1
Идентификатор : 2
Формат : DTS
Формат/Информация : Digital Theater Systems
Идентификатор кодека : A_DTS
Продолжительность : 1 ч. 25 м.
Вид битрейта : Постоянный
Битрейт : 1510 Кбит/сек
Каналы : 6 каналов
Расположение каналов : Front: L C R, Side: L R, LFE
Частота : 48,0 КГц
Битовая глубина : 24 бит
Метод сжатия : С потерями
Размер потока : 925 Мбайт (7%)
Заголовок : Pozitiv, DTS, 6 ch
Язык : Russian

Аудио #2
Идентификатор : 3
Формат : AC-3
Формат/Информация : Audio Coding 3
Расширение режима : CM (complete main)
Идентификатор кодека : A_AC3
Продолжительность : 1 ч. 25 м.
Вид битрейта : Постоянный
Битрейт : 192 Кбит/сек
Каналы : 2 канала
Расположение каналов : Front: L R
Частота : 48,0 КГц
Битовая глубина : 16 бит
Метод сжатия : С потерями
Размер потока : 118 Мбайт (1%)
Заголовок : NTV, AC3, 2 ch
Язык : Russian

Аудио #3
Идентификатор : 4
Формат : DTS
Формат/Информация : Digital Theater Systems
Идентификатор кодека : A_DTS
Продолжительность : 1 ч. 25 м.
Вид битрейта : Постоянный
Битрейт : 1510 Кбит/сек
Каналы : 6 каналов
Расположение каналов : Front: L C R, Side: L R, LFE
Частота : 48,0 КГц
Битовая глубина : 24 бит
Метод сжатия : С потерями
Размер потока : 925 Мбайт (7%)
Заголовок : Kinomaniya, DTS, 6 ch
Язык : Russian

Аудио #4
Идентификатор : 5
Формат : DTS
Формат/Информация : Digital Theater Systems
Идентификатор кодека : A_DTS
Продолжительность : 1 ч. 25 м.
Вид битрейта : Постоянный
Битрейт : 1510 Кбит/сек
Каналы : 6 каналов
Расположение каналов : Front: L C R, Side: L R, LFE
Частота : 48,0 КГц
Битовая глубина : 24 бит
Метод сжатия : С потерями
Размер потока : 925 Мбайт (7%)
Заголовок : CP Digital, DTS, 6 ch
Язык : Russian

Аудио #5
Идентификатор : 6
Формат : DTS
Формат/Информация : Digital Theater Systems
Идентификатор кодека : A_DTS
Продолжительность : 1 ч. 25 м.
Вид битрейта : Постоянный
Битрейт : 1510 Кбит/сек
Каналы : 6 каналов
Расположение каналов : Front: L C R, Side: L R, LFE
Частота : 48,0 КГц
Битовая глубина : 24 бит
Метод сжатия : С потерями
Размер потока : 925 Мбайт (7%)
Заголовок : Gavrilov, DTS, 6 ch
Язык : Russian

Аудио #6
Идентификатор : 7
Формат : AC-3
Формат/Информация : Audio Coding 3
Расширение режима : CM (complete main)
Идентификатор кодека : A_AC3
Продолжительность : 1 ч. 25 м.
Вид битрейта : Постоянный
Битрейт : 192 Кбит/сек
Каналы : 2 канала
Расположение каналов : Front: L R
Частота : 48,0 КГц
Битовая глубина : 16 бит
Метод сжатия : С потерями
Размер потока : 118 Мбайт (1%)
Заголовок : Gorchakov, AC3, 2 ch
Язык : Russian

Аудио #7
Идентификатор : 8
Формат : DTS
Формат/Информация : Digital Theater Systems
Идентификатор кодека : A_DTS
Продолжительность : 1 ч. 25 м.
Вид битрейта : Постоянный
Битрейт : 1510 Кбит/сек
Каналы : 6 каналов
Расположение каналов : Front: L C R, Side: L R, LFE
Частота : 48,0 КГц
Битовая глубина : 24 бит
Метод сжатия : С потерями
Размер потока : 925 Мбайт (7%)
Заголовок : English, DTS, 6 ch
Язык : English

Текст #1
Идентификатор : 9
Формат : UTF-8
Идентификатор кодека : S_TEXT/UTF8
Идентификатор кодека/Информация : UTF-8 Plain Text
Заголовок : Kinomaniya
Язык : Russian

Текст #2
Идентификатор : 10
Формат : UTF-8
Идентификатор кодека : S_TEXT/UTF8
Идентификатор кодека/Информация : UTF-8 Plain Text
Заголовок : CP Digital
Язык : Russian

Текст #3
Идентификатор : 11
Формат : UTF-8
Идентификатор кодека : S_TEXT/UTF8
Идентификатор кодека/Информация : UTF-8 Plain Text
Заголовок : English
Язык : English

Меню
00:00:00.000 : en:00:00:00.000
00:06:42.777 : en:00:06:42.777
00:08:30.260 : en:00:08:30.260
00:12:03.932 : en:00:12:03.932
00:16:01.836 : en:00:16:01.836
00:18:02.415 : en:00:18:02.415
00:23:02.673 : en:00:23:02.673
00:26:25.751 : en:00:26:25.751
00:27:58.260 : en:00:27:58.260
00:30:40.505 : en:00:30:40.505
00:33:11.489 : en:00:33:11.489
00:37:27.454 : en:00:37:27.454
00:40:01.441 : en:00:40:01.441
00:42:59.619 : en:00:42:59.619
00:46:07.390 : en:00:46:07.390
00:49:09.572 : en:00:49:09.572
00:54:03.532 : en:00:54:03.532
00:57:33.450 : en:00:57:33.450
01:01:30.520 : en:01:01:30.520
01:04:21.733 : en:01:04:21.733
01:08:07.667 : en:01:08:07.667
01:11:15.605 : en:01:11:15.605
01:14:57.576 : en:01:14:57.576
01:17:30.145 : en:01:17:30.145
01:20:32.411 : en:01:20:32.411
01:22:49.965 : en:01:22:49.965
Свернуть
Свернуть

Кошмар на улице Вязов 3: Воины сна / A Nightmare on Elm Street 3: Dream Warriors
Кошмар на улице Вязов 3: Воины сна / A Nightmare on Elm Street 3: Dream Warriors

Изображение


Год выпуска: 1987
Страна: США
Жанр: Ужасы
Продолжительность: 01:36:31
Перевод: Профессиональный (многоголосый, закадровый) Позитив / Киномания / CP Digital
Перевод: Профессиональный (двухголосый, закадровый) НТВ
Перевод: Авторский (одноголосый, закадровый) Гаврилов / Горчаков / Дохалов / Кашкин
Субтитры: русские (x2), английские

Режиссер: Чак Рассел / Chuck Russell

В ролях: Хезер Лэнгенкэмп, Роберт Инглунд, Патриция Аркетт, Крейг Уоссон, Кен Сэйгоз, Родни Истман, Дженнифер Рубин, Брэдли Грегг, Ира Хейден, Лоренс Фишбёрн

Описание: События происходят через шесть лет после первого появления Фредди Крюгера. Он стал намного сильнее, подпитываясь душами детей с улицы Вязов. Теперь он обратил внимание на семерых детишек, заключенных в психиатрической лечебнице. Положение усугубляется повальными «самоубийствами», которые, разумеется, являются проделками Фредди. Разрешить ситуацию и объяснить что происходит может лишь Нэнси Томпсон, которая вернулась в родной город в качестве врача-практиканта…
Качество: BDRip 1080p
Формат: MKV
Видео: MPEG-4/AVC 12500 kbps 1920x1080p / 23,976 fps / High Profile 4.1
Аудио: DTS Russian 5.1 / 48 kHz / 1510 kbps / 24-bit [Позитив]
Аудио: Dolby Digital Audio Russian 2.0 / 48 kHz / 192 kbps [НТВ]
Аудио: DTS Russian 5.1 / 48 kHz / 1509 kbps / 24-bit [Киномания]
Аудио: Dolby Digital Audio Russian 2.0 / 48 kHz / 192 kbps [CP Digital]
Аудио: Dolby Digital Audio Russian 5.1 / 48 kHz / 448 kbps [Горчаков]
Аудио: Dolby Digital Audio Russian 2.0 / 48 kHz / 192 kbps [Дохалов]
Аудио: Dolby Digital Audio Russian 2.0 / 48 kHz / 192 kbps [Гаврилов (ранний)]
Аудио: DTS Russian 5.1 / 48 kHz / 1510 kbps / 24-bit [Гаврилов]
Аудио: DTS Russian 5.1 / 48 kHz / 1510 kbps / 24-bit [Кашкин]
Аудио: DTS English 5.1 / 48 kHz / 1510 kbps / 24-bit
скриншоты
Изображение

Изображение

Изображение
Свернуть
Mi
Формат : Matroska
Версия формата : Version 2
Размер файла : 14,3 Гбайт
Продолжительность : 1 ч. 36 м.
Общий поток : 21,3 Мбит/сек
Название фильма : Nightmare.on.Elm.Street.3.1987.1080p.Bluray.AVC.Remux
Дата кодирования : UTC 2012-01-06 10:54:41
Программа кодирования : mkvmerge v5.2.1 ('A Far Off Place') built on Jan 2 2012 23:21:10
Библиотека кодирования : libebml v1.2.3 + libmatroska v1.3.0

Видео
Идентификатор : 1
Формат : AVC
Формат/Информация : Advanced Video Codec
Профиль формата : High@L4.1
Параметр CABAC формата : Да
Параметр ReFrames формата : 4 кадра
Идентификатор кодека : V_MPEG4/ISO/AVC
Продолжительность : 1 ч. 36 м.
Битрейт : 12,5 Мбит/сек
Ширина : 1920 пикселей
Высота : 1080 пикселей
Соотношение сторон : 16:9
Частота кадров : 23,976 кадра/сек
Цветовое пространство : YUV
Субдискретизация насыщенности : 4:2:0
Битовая глубина : 8 бит
Тип развёртки : Прогрессивная
Бит/(Пиксели*Кадры) : 0.251
Размер потока : 8,14 Гбайт (57%)
Библиотека кодирования : x264 core 115 r1936 7a9e08d
Настройки программы : cabac=1 / ref=4 / deblock=1:-1:-1 / analyse=0x3:0x133 / me=umh / subme=10 / psy=1 / psy_rd=1.00:0.10 / mixed_ref=1 / me_range=24 / chroma_me=1 / trellis=2 / 8x8dct=1 / cqm=0 / deadzone=21,11 / fast_pskip=0 / chroma_qp_offset=-3 / threads=9 / sliced_threads=0 / nr=0 / decimate=1 / interlaced=0 / bluray_compat=0 / constrained_intra=0 / bframes=11 / b_pyramid=2 / b_adapt=2 / b_bias=0 / direct=3 / weightb=1 / open_gop=0 / weightp=2 / keyint=250 / keyint_min=23 / scenecut=40 / intra_refresh=0 / rc_lookahead=50 / rc=2pass / mbtree=1 / bitrate=12500 / ratetol=1.0 / qcomp=0.70 / qpmin=0 / qpmax=69 / qpstep=4 / cplxblur=20.0 / qblur=0.5 / ip_ratio=1.40 / aq=1:1.00
Язык : English

Аудио #1
Идентификатор : 2
Формат : DTS
Формат/Информация : Digital Theater Systems
Идентификатор кодека : A_DTS
Продолжительность : 1 ч. 36 м.
Вид битрейта : Постоянный
Битрейт : 1510 Кбит/сек
Каналы : 6 каналов
Расположение каналов : Front: L C R, Side: L R, LFE
Частота : 48,0 КГц
Битовая глубина : 24 бит
Метод сжатия : С потерями
Размер потока : 1,02 Гбайт (7%)
Заголовок : Pozitiv, DTS, 6 ch
Язык : Russian

Аудио #2
Идентификатор : 3
Формат : AC-3
Формат/Информация : Audio Coding 3
Расширение режима : CM (complete main)
Идентификатор кодека : A_AC3
Продолжительность : 1 ч. 36 м.
Вид битрейта : Постоянный
Битрейт : 192 Кбит/сек
Каналы : 2 канала
Расположение каналов : Front: L R
Частота : 48,0 КГц
Битовая глубина : 16 бит
Метод сжатия : С потерями
Размер потока : 133 Мбайт (1%)
Заголовок : NTV, AC3, 2 ch
Язык : Russian

Аудио #3
Идентификатор : 4
Формат : DTS
Формат/Информация : Digital Theater Systems
Идентификатор кодека : A_DTS
Продолжительность : 1 ч. 36 м.
Вид битрейта : Постоянный
Битрейт : 1510 Кбит/сек
Каналы : 6 каналов
Расположение каналов : Front: L C R, Side: L R, LFE
Частота : 48,0 КГц
Битовая глубина : 24 бит
Метод сжатия : С потерями
Размер потока : 1,02 Гбайт (7%)
Заголовок : Kinomaniya, DTS, 6 ch
Язык : Russian

Аудио #4
Идентификатор : 5
Формат : AC-3
Формат/Информация : Audio Coding 3
Расширение режима : CM (complete main)
Идентификатор кодека : A_AC3
Продолжительность : 1 ч. 36 м.
Вид битрейта : Постоянный
Битрейт : 192 Кбит/сек
Каналы : 2 канала
Расположение каналов : Front: L R
Частота : 48,0 КГц
Битовая глубина : 16 бит
Метод сжатия : С потерями
Размер потока : 133 Мбайт (1%)
Заголовок : CP Digital, AC3, 2 ch
Язык : Russian

Аудио #5
Идентификатор : 6
Формат : AC-3
Формат/Информация : Audio Coding 3
Расширение режима : CM (complete main)
Идентификатор кодека : A_AC3
Продолжительность : 1 ч. 36 м.
Вид битрейта : Постоянный
Битрейт : 448 Кбит/сек
Каналы : 6 каналов
Расположение каналов : Front: L C R, Side: L R, LFE
Частота : 48,0 КГц
Битовая глубина : 16 бит
Метод сжатия : С потерями
Размер потока : 309 Мбайт (2%)
Заголовок : Gavrilov (ranniy), AC3, 2 ch
Язык : Russian

Аудио #6
Идентификатор : 7
Формат : DTS
Формат/Информация : Digital Theater Systems
Идентификатор кодека : A_DTS
Продолжительность : 1 ч. 36 м.
Вид битрейта : Постоянный
Битрейт : 1510 Кбит/сек
Каналы : 6 каналов
Расположение каналов : Front: L C R, Side: L R, LFE
Частота : 48,0 КГц
Битовая глубина : 24 бит
Метод сжатия : С потерями
Размер потока : 1,02 Гбайт (7%)
Заголовок : Gavrilov (pozdniy), DTS, 6 ch
Язык : Russian

Аудио #7
Идентификатор : 8
Формат : AC-3
Формат/Информация : Audio Coding 3
Расширение режима : CM (complete main)
Идентификатор кодека : A_AC3
Продолжительность : 1 ч. 36 м.
Вид битрейта : Постоянный
Битрейт : 192 Кбит/сек
Каналы : 2 канала
Расположение каналов : Front: L R
Частота : 48,0 КГц
Битовая глубина : 16 бит
Метод сжатия : С потерями
Размер потока : 133 Мбайт (1%)
Заголовок : Gorchakov, AC3, 6 ch
Язык : Russian

Аудио #8
Идентификатор : 9
Формат : AC-3
Формат/Информация : Audio Coding 3
Расширение режима : CM (complete main)
Идентификатор кодека : A_AC3
Продолжительность : 1 ч. 36 м.
Вид битрейта : Постоянный
Битрейт : 192 Кбит/сек
Каналы : 2 канала
Расположение каналов : Front: L R
Частота : 48,0 КГц
Битовая глубина : 16 бит
Метод сжатия : С потерями
Размер потока : 133 Мбайт (1%)
Заголовок : Dohalov, AC3, 2 ch
Язык : Russian

Аудио #9
Идентификатор : 10
Формат : DTS
Формат/Информация : Digital Theater Systems
Идентификатор кодека : A_DTS
Продолжительность : 1 ч. 36 м.
Вид битрейта : Постоянный
Битрейт : 1510 Кбит/сек
Каналы : 6 каналов
Расположение каналов : Front: L C R, Side: L R, LFE
Частота : 48,0 КГц
Битовая глубина : 24 бит
Метод сжатия : С потерями
Размер потока : 1,02 Гбайт (7%)
Заголовок : Kashkin, DTS, 6 ch
Язык : Russian

Аудио #10
Идентификатор : 11
Формат : DTS
Формат/Информация : Digital Theater Systems
Идентификатор кодека : A_DTS
Продолжительность : 1 ч. 36 м.
Вид битрейта : Постоянный
Битрейт : 1510 Кбит/сек
Каналы : 6 каналов
Расположение каналов : Front: L C R, Side: L R, LFE
Частота : 48,0 КГц
Битовая глубина : 24 бит
Метод сжатия : С потерями
Размер потока : 1,02 Гбайт (7%)
Заголовок : English, DTS, 6 ch
Язык : English

Текст #1
Идентификатор : 12
Формат : UTF-8
Идентификатор кодека : S_TEXT/UTF8
Идентификатор кодека/Информация : UTF-8 Plain Text
Заголовок : Kinomaniya
Язык : Russian

Текст #2
Идентификатор : 13
Формат : UTF-8
Идентификатор кодека : S_TEXT/UTF8
Идентификатор кодека/Информация : UTF-8 Plain Text
Заголовок : R5
Язык : Russian

Текст #3
Идентификатор : 14
Формат : UTF-8
Идентификатор кодека : S_TEXT/UTF8
Идентификатор кодека/Информация : UTF-8 Plain Text
Заголовок : English
Язык : English

Меню
00:00:00.000 : en:00:00:00.000
00:03:21.868 : en:00:03:21.868
00:04:12.127 : en:00:04:12.127
00:08:31.094 : en:00:08:31.094
00:09:31.613 : en:00:09:31.613
00:14:37.502 : en:00:14:37.502
00:18:49.879 : en:00:18:49.879
00:22:50.744 : en:00:22:50.744
00:25:53.927 : en:00:25:53.927
00:29:25.430 : en:00:29:25.430
00:32:41.710 : en:00:32:41.710
00:35:38.803 : en:00:35:38.803
00:38:42.570 : en:00:38:42.570
00:40:16.623 : en:00:40:16.623
00:42:05.523 : en:00:42:05.523
00:47:44.445 : en:00:47:44.445
00:50:46.043 : en:00:50:46.043
00:54:43.280 : en:00:54:43.280
00:59:10.922 : en:00:59:10.922
01:02:54.354 : en:01:02:54.354
01:06:19.392 : en:01:06:19.392
01:10:41.487 : en:01:10:41.487
01:12:51.492 : en:01:12:51.492
01:14:56.909 : en:01:14:56.909
01:16:50.981 : en:01:16:50.981
01:18:58.734 : en:01:18:58.734
01:21:10.866 : en:01:21:10.866
01:24:17.135 : en:01:24:17.135
01:26:37.401 : en:01:26:37.401
01:30:57.327 : en:01:30:57.327
01:32:32.297 : en:01:32:32.297
Свернуть
Свернуть

Кошмар на улице Вязов 4: Повелитель сна / A Nightmare on Elm Street 4: The Dream Master
Кошмар на улице Вязов 4: Повелитель сна / A Nightmare on Elm Street 4: The Dream Master

Изображение


Год выпуска: 1988
Страна: США
Жанр: ужасы
Продолжительность: 1:33:15
Перевод: Профессиональный (многоголосый, закадровый) Позитив / Киномания / CP Digital / ТРК Россия
Профессиональный (двухголосый, закадровый) НТВ
Авторский (одноголосый, закадровый) Гаврилов / Володарский
Одноголосый, закадровый - 2 варианта
Субтитры: русские (x2), английские

Режиссер: Ренни Харлин / Renny Harlin

В ролях: Роберт Инглунд, Кен Сэйгоз, Родни Истман, Лиза Уилкокс, Андрас Джонс, Дэнни Хэссел, Брук Тэйсс, Той Ньюкирк, Тьюзди Найт, Николас Меле

Описание: Маленькая собачка, писающая огненным пламенем на могилу Фредди во сне одного из героев, оживляет этого Повелителя снов. С радостью он начинает убивать выживших героев предыдущей части, в свое время оказавших ему достойное сопротивление. Казалось, он останется непобедимым и ужасным Кошмаром улицы Вязов. Но Фредди просчитался: за мгновение до своего ухода в мир иной, Кристен, последний отпрыск с улицы Вязов, успевает передать свою уникальную способность заманивать в свои сны других людей девушке Элис…
Качество: BDRip 1080p
Формат: MKV
Видео: MPEG-4/AVC 13200 kbps 1920x1080p / 23,976 fps / High Profile 4.1
Аудио: DTS Russian 5.1 / 48 kHz / 1510 kbps / 24-bit [Позитив]
Аудио: Dolby Digital Audio Russian 2.0 / 48 kHz / 192 kbps [НТВ]
Аудио: DTS Russian 5.1 / 48 kHz / 1510 kbps / 24-bit [Киномания]
Аудио: DTS Russian 5.1 / 48 kHz / 1510 kbps / 24-bit [CP Digital]
Аудио: DTS Russian 5.1 / 48 kHz / 1510 kbps / 24-bit [Гаврилов]
Аудио: Dolby Digital Audio Russian 2.0 / 48 kHz / 192 kbps [Россия]
Аудио: Dolby Digital Audio Russian 2.0 / 48 kHz / 192 kbps [Володарский]
Аудио: Dolby Digital Audio Russian 2.0 / 48 kHz / 192 kbps [Неизвестный #1]
Аудио: Dolby Digital Audio Russian 2.0 / 48 kHz / 192 kbps [Неизвестный #2]
Аудио: DTS English 5.1 / 48 kHz / 1510 kbps / 24-bit
скриншоты
Изображение

Изображение

Изображение
Свернуть
Mi
Формат : Matroska
Версия формата : Version 2
Размер файла : 14,1 Гбайт
Продолжительность : 1 ч. 33 м.
Общий поток : 21,7 Мбит/сек
Название фильма : Nightmare.on.Elm.Street.4.1988.1080p.Bluray.AVC.Remux
Дата кодирования : UTC 2012-01-07 12:43:00
Программа кодирования : mkvmerge v5.2.1 ('A Far Off Place') built on Jan 2 2012 23:21:10
Библиотека кодирования : libebml v1.2.3 + libmatroska v1.3.0

Видео
Идентификатор : 1
Формат : AVC
Формат/Информация : Advanced Video Codec
Профиль формата : High@L4.1
Параметр CABAC формата : Да
Параметр ReFrames формата : 4 кадра
Идентификатор кодека : V_MPEG4/ISO/AVC
Продолжительность : 1 ч. 33 м.
Битрейт : 13,2 Мбит/сек
Ширина : 1920 пикселей
Высота : 1080 пикселей
Соотношение сторон : 16:9
Частота кадров : 23,976 кадра/сек
Цветовое пространство : YUV
Субдискретизация насыщенности : 4:2:0
Битовая глубина : 8 бит
Тип развёртки : Прогрессивная
Бит/(Пиксели*Кадры) : 0.266
Размер потока : 8,31 Гбайт (59%)
Библиотека кодирования : x264 core 115 r1936 7a9e08d
Настройки программы : cabac=1 / ref=4 / deblock=1:-1:-1 / analyse=0x3:0x133 / me=umh / subme=10 / psy=1 / psy_rd=1.00:0.10 / mixed_ref=1 / me_range=24 / chroma_me=1 / trellis=2 / 8x8dct=1 / cqm=0 / deadzone=21,11 / fast_pskip=0 / chroma_qp_offset=-3 / threads=9 / sliced_threads=0 / nr=0 / decimate=1 / interlaced=0 / bluray_compat=0 / constrained_intra=0 / bframes=11 / b_pyramid=2 / b_adapt=2 / b_bias=0 / direct=3 / weightb=1 / open_gop=0 / weightp=2 / keyint=250 / keyint_min=23 / scenecut=40 / intra_refresh=0 / rc_lookahead=50 / rc=2pass / mbtree=1 / bitrate=13200 / ratetol=1.0 / qcomp=0.70 / qpmin=0 / qpmax=69 / qpstep=4 / cplxblur=20.0 / qblur=0.5 / ip_ratio=1.40 / aq=1:1.00
Язык : English

Аудио #1
Идентификатор : 2
Формат : DTS
Формат/Информация : Digital Theater Systems
Идентификатор кодека : A_DTS
Продолжительность : 1 ч. 33 м.
Вид битрейта : Постоянный
Битрейт : 1510 Кбит/сек
Каналы : 6 каналов
Расположение каналов : Front: L C R, Side: L R, LFE
Частота : 48,0 КГц
Битовая глубина : 24 бит
Метод сжатия : С потерями
Размер потока : 1007 Мбайт (7%)
Заголовок : Pozitiv, DTS, 6 ch
Язык : Russian

Аудио #2
Идентификатор : 3
Формат : AC-3
Формат/Информация : Audio Coding 3
Расширение режима : CM (complete main)
Идентификатор кодека : A_AC3
Продолжительность : 1 ч. 33 м.
Вид битрейта : Постоянный
Битрейт : 192 Кбит/сек
Каналы : 2 канала
Расположение каналов : Front: L R
Частота : 48,0 КГц
Битовая глубина : 16 бит
Метод сжатия : С потерями
Размер потока : 128 Мбайт (1%)
Заголовок : NTV, AC3, 2 ch
Язык : Russian

Аудио #3
Идентификатор : 4
Формат : DTS
Формат/Информация : Digital Theater Systems
Идентификатор кодека : A_DTS
Продолжительность : 1 ч. 33 м.
Вид битрейта : Постоянный
Битрейт : 1510 Кбит/сек
Каналы : 6 каналов
Расположение каналов : Front: L C R, Side: L R, LFE
Частота : 48,0 КГц
Битовая глубина : 24 бит
Метод сжатия : С потерями
Размер потока : 1007 Мбайт (7%)
Заголовок : Kinomaniya, DTS, 6 ch
Язык : Russian

Аудио #4
Идентификатор : 5
Формат : DTS
Формат/Информация : Digital Theater Systems
Идентификатор кодека : A_DTS
Продолжительность : 1 ч. 33 м.
Вид битрейта : Постоянный
Битрейт : 1510 Кбит/сек
Каналы : 6 каналов
Расположение каналов : Front: L C R, Side: L R, LFE
Частота : 48,0 КГц
Битовая глубина : 24 бит
Метод сжатия : С потерями
Размер потока : 1007 Мбайт (7%)
Заголовок : CP Digital, DTS, 6 ch
Язык : Russian

Аудио #5
Идентификатор : 6
Формат : DTS
Формат/Информация : Digital Theater Systems
Идентификатор кодека : A_DTS
Продолжительность : 1 ч. 33 м.
Вид битрейта : Постоянный
Битрейт : 1510 Кбит/сек
Каналы : 6 каналов
Расположение каналов : Front: L C R, Side: L R, LFE
Частота : 48,0 КГц
Битовая глубина : 24 бит
Метод сжатия : С потерями
Размер потока : 1007 Мбайт (7%)
Заголовок : Gavrilov, DTS, 6 ch
Язык : Russian

Аудио #6
Идентификатор : 7
Формат : AC-3
Формат/Информация : Audio Coding 3
Расширение режима : CM (complete main)
Идентификатор кодека : A_AC3
Продолжительность : 1 ч. 33 м.
Вид битрейта : Постоянный
Битрейт : 192 Кбит/сек
Каналы : 2 канала
Расположение каналов : Front: L R
Частота : 48,0 КГц
Битовая глубина : 16 бит
Метод сжатия : С потерями
Размер потока : 128 Мбайт (1%)
Заголовок : TRK "Russia", AC3, 2 ch
Язык : Russian

Аудио #7
Идентификатор : 8
Формат : AC-3
Формат/Информация : Audio Coding 3
Расширение режима : CM (complete main)
Идентификатор кодека : A_AC3
Продолжительность : 1 ч. 33 м.
Вид битрейта : Постоянный
Битрейт : 192 Кбит/сек
Каналы : 2 канала
Расположение каналов : Front: L R
Частота : 48,0 КГц
Битовая глубина : 16 бит
Метод сжатия : С потерями
Размер потока : 128 Мбайт (1%)
Заголовок : Volodarskiy, AC3, 2 ch
Язык : Russian

Аудио #8
Идентификатор : 9
Формат : AC-3
Формат/Информация : Audio Coding 3
Расширение режима : CM (complete main)
Идентификатор кодека : A_AC3
Продолжительность : 1 ч. 33 м.
Вид битрейта : Постоянный
Битрейт : 192 Кбит/сек
Каналы : 2 канала
Расположение каналов : Front: L R
Частота : 48,0 КГц
Битовая глубина : 16 бит
Метод сжатия : С потерями
Размер потока : 128 Мбайт (1%)
Заголовок : Neizvestnuy 1, AC3, 2 ch
Язык : Russian

Аудио #9
Идентификатор : 10
Формат : AC-3
Формат/Информация : Audio Coding 3
Расширение режима : CM (complete main)
Идентификатор кодека : A_AC3
Продолжительность : 1 ч. 33 м.
Вид битрейта : Постоянный
Битрейт : 192 Кбит/сек
Каналы : 2 канала
Расположение каналов : Front: L R
Частота : 48,0 КГц
Битовая глубина : 16 бит
Метод сжатия : С потерями
Размер потока : 128 Мбайт (1%)
Заголовок : Neizvestnuy 2, AC3, 2 ch
Язык : Russian

Аудио #10
Идентификатор : 11
Формат : DTS
Формат/Информация : Digital Theater Systems
Идентификатор кодека : A_DTS
Продолжительность : 1 ч. 33 м.
Вид битрейта : Постоянный
Битрейт : 1510 Кбит/сек
Каналы : 6 каналов
Расположение каналов : Front: L C R, Side: L R, LFE
Частота : 48,0 КГц
Битовая глубина : 24 бит
Метод сжатия : С потерями
Размер потока : 1007 Мбайт (7%)
Заголовок : English, DTS, 6 ch
Язык : English

Текст #1
Идентификатор : 12
Формат : UTF-8
Идентификатор кодека : S_TEXT/UTF8
Идентификатор кодека/Информация : UTF-8 Plain Text
Заголовок : Kinomaniya
Язык : Russian

Текст #2
Идентификатор : 13
Формат : UTF-8
Идентификатор кодека : S_TEXT/UTF8
Идентификатор кодека/Информация : UTF-8 Plain Text
Заголовок : CP Digital
Язык : Russian

Текст #3
Идентификатор : 14
Формат : UTF-8
Идентификатор кодека : S_TEXT/UTF8
Идентификатор кодека/Информация : UTF-8 Plain Text
Заголовок : English
Язык : English

Меню
00:00:00.000 : en:00:00:00.000
00:04:57.297 : en:00:04:57.297
00:07:20.732 : en:00:07:20.732
00:12:11.189 : en:00:12:11.189
00:15:29.387 : en:00:15:29.387
00:20:33.816 : en:00:20:33.816
00:23:06.010 : en:00:23:06.010
00:25:09.174 : en:00:25:09.174
00:28:01.013 : en:00:28:01.013
00:30:48.764 : en:00:30:48.764
00:32:55.599 : en:00:32:55.599
00:35:07.439 : en:00:35:07.439
00:39:39.919 : en:00:39:39.919
00:43:26.103 : en:00:43:26.103
00:46:58.607 : en:00:46:58.607
00:53:03.347 : en:00:53:03.347
00:55:31.286 : en:00:55:31.286
00:58:28.922 : en:00:58:28.922
01:02:06.514 : en:01:02:06.514
01:05:02.982 : en:01:05:02.982
01:07:36.177 : en:01:07:36.177
01:11:54.143 : en:01:11:54.143
01:14:30.466 : en:01:14:30.466
01:19:13.248 : en:01:19:13.248
01:22:28.360 : en:01:22:28.360
01:25:53.148 : en:01:25:53.148
01:27:00.799 : en:01:27:00.799
Свернуть
Свернуть

Кошмар на улице Вязов 5: Дитя сна / A Nightmare on Elm Street: The Dream Child
Кошмар на улице Вязов 5: Дитя сна / A Nightmare on Elm Street: The Dream Child

Изображение

Год выпуска: 1989
Страна: США
Жанр: ужасы
Продолжительность: 1:29:38
Перевод: Профессиональный (многоголосый, закадровый) Позитив / Киномания / CP Digital / ТРК Россия
Профессиональный (двухголосый, закадровый) НТВ
Авторский (одноголосый, закадровый) Гаврилов / Горчаков / Живов
Субтитры: русские (x2), английские

Режиссер: Стивен Хопкинс / Stephen Hopkins

В ролях: Роберт Инглунд, Лиза Уилкокс, Эрика Андерсон, Вэлори Армстронг, Майкл Эштон, Беатрис Боппл, Мэтт Борленджи, Ноубл Крэйг, Е.Р. Дейвис, Барр ДеБеннинг

Описание: Неистребимый детоубийца, который в пятой части даже объявляет себя Супер-Фредди, исхитряется возродиться в ребенке, находящемся в утробе матери. Единственный шанс спасти ребенка — найти незахороненный труп монашки Аманды Крюгер, породившей на свет такое чудовище как Фредди, чтобы его уничтожить.
Качество: BDRip 1080p
Формат: MKV
Видео: MPEG-4/AVC 13200 kbps 1920х1080p / 23,976 fps / High Profile 4.1
Аудио: DTS Russian 5.1 / 48 kHz / 1510 kbps / 24-bit [Позитив]
Аудио: Dolby Digital Audio Russian 2.0 / 48 kHz / 192 kbps [НТВ]
Аудио: DTS Russian 5.1 / 48 kHz / 1510 kbps / 24-bit [Киномания]
Аудио: Dolby Digital Audio Russian 2.0 / 48 kHz / 192 kbps [CP Digital]
Аудио: DTS Russian 5.1 / 48 kHz / 1510 kbps / 24-bit [Гаврилов]
Аудио: Dolby Digital Audio Russian 2.0 / 48 kHz / 192 kbps [Россия]
Аудио: Dolby Digital Audio Russian 2.0 / 48 kHz / 192 kbps [Горчаков]
Аудио: Dolby Digital Audio Russian 2.0 / 48 kHz / 192 kbps [Живов]
Аудио: DTS English 5.1 / 48 kHz / 1510 kbps / 24-bit
скриншоты
Изображение

Изображение

Изображение
Свернуть
Mi
Формат : Matroska
Версия формата : Version 2
Размер файла : 12,6 Гбайт
Продолжительность : 1 ч. 29 м.
Общий поток : 20,2 Мбит/сек
Название фильма : Nightmare.on.Elm.Street.5.1989.1080p.Bluray.AVC.Remux
Дата кодирования : UTC 2012-01-08 13:33:21
Программа кодирования : mkvmerge v5.2.1 ('A Far Off Place') built on Jan 2 2012 23:21:10
Библиотека кодирования : libebml v1.2.3 + libmatroska v1.3.0

Видео
Идентификатор : 1
Формат : AVC
Формат/Информация : Advanced Video Codec
Профиль формата : High@L4.1
Параметр CABAC формата : Да
Параметр ReFrames формата : 4 кадра
Идентификатор кодека : V_MPEG4/ISO/AVC
Продолжительность : 1 ч. 29 м.
Битрейт : 13,2 Мбит/сек
Ширина : 1920 пикселей
Высота : 1080 пикселей
Соотношение сторон : 16:9
Частота кадров : 23,976 кадра/сек
Цветовое пространство : YUV
Субдискретизация насыщенности : 4:2:0
Битовая глубина : 8 бит
Тип развёртки : Прогрессивная
Бит/(Пиксели*Кадры) : 0.266
Размер потока : 8,01 Гбайт (63%)
Библиотека кодирования : x264 core 115 r1936 7a9e08d
Настройки программы : cabac=1 / ref=4 / deblock=1:-1:-1 / analyse=0x3:0x133 / me=umh / subme=10 / psy=1 / psy_rd=1.00:0.10 / mixed_ref=1 / me_range=24 / chroma_me=1 / trellis=2 / 8x8dct=1 / cqm=0 / deadzone=21,11 / fast_pskip=0 / chroma_qp_offset=-3 / threads=9 / sliced_threads=0 / nr=0 / decimate=1 / interlaced=0 / bluray_compat=0 / constrained_intra=0 / bframes=11 / b_pyramid=2 / b_adapt=2 / b_bias=0 / direct=3 / weightb=1 / open_gop=0 / weightp=2 / keyint=250 / keyint_min=23 / scenecut=40 / intra_refresh=0 / rc_lookahead=50 / rc=2pass / mbtree=1 / bitrate=13200 / ratetol=1.0 / qcomp=0.70 / qpmin=0 / qpmax=69 / qpstep=4 / cplxblur=20.0 / qblur=0.5 / ip_ratio=1.40 / aq=1:1.00
Язык : English

Аудио #1
Идентификатор : 2
Формат : DTS
Формат/Информация : Digital Theater Systems
Идентификатор кодека : A_DTS
Продолжительность : 1 ч. 29 м.
Вид битрейта : Постоянный
Битрейт : 1510 Кбит/сек
Каналы : 6 каналов
Расположение каналов : Front: L C R, Side: L R, LFE
Частота : 48,0 КГц
Битовая глубина : 24 бит
Метод сжатия : С потерями
Размер потока : 968 Мбайт (7%)
Заголовок : Pozitiv, DTS, 6 ch
Язык : Russian

Аудио #2
Идентификатор : 3
Формат : AC-3
Формат/Информация : Audio Coding 3
Расширение режима : CM (complete main)
Идентификатор кодека : A_AC3
Продолжительность : 1 ч. 29 м.
Вид битрейта : Постоянный
Битрейт : 192 Кбит/сек
Каналы : 2 канала
Расположение каналов : Front: L R
Частота : 48,0 КГц
Битовая глубина : 16 бит
Метод сжатия : С потерями
Размер потока : 123 Мбайт (1%)
Заголовок : NTV, AC3, 2 ch
Язык : Russian

Аудио #3
Идентификатор : 4
Формат : DTS
Формат/Информация : Digital Theater Systems
Идентификатор кодека : A_DTS
Продолжительность : 1 ч. 29 м.
Вид битрейта : Постоянный
Битрейт : 1510 Кбит/сек
Каналы : 6 каналов
Расположение каналов : Front: L C R, Side: L R, LFE
Частота : 48,0 КГц
Битовая глубина : 24 бит
Метод сжатия : С потерями
Размер потока : 968 Мбайт (7%)
Заголовок : Kinomaniya, DTS, 6 ch
Язык : Russian

Аудио #4
Идентификатор : 5
Формат : AC-3
Формат/Информация : Audio Coding 3
Расширение режима : CM (complete main)
Идентификатор кодека : A_AC3
Продолжительность : 1 ч. 29 м.
Вид битрейта : Постоянный
Битрейт : 192 Кбит/сек
Каналы : 2 канала
Расположение каналов : Front: L R
Частота : 48,0 КГц
Битовая глубина : 16 бит
Метод сжатия : С потерями
Размер потока : 123 Мбайт (1%)
Заголовок : CP Digital, AC3, 2 ch
Язык : Russian

Аудио #5
Идентификатор : 6
Формат : DTS
Формат/Информация : Digital Theater Systems
Идентификатор кодека : A_DTS
Продолжительность : 1 ч. 29 м.
Вид битрейта : Постоянный
Битрейт : 1510 Кбит/сек
Каналы : 6 каналов
Расположение каналов : Front: L C R, Side: L R, LFE
Частота : 48,0 КГц
Битовая глубина : 24 бит
Метод сжатия : С потерями
Размер потока : 968 Мбайт (7%)
Заголовок : Gavrilov, DTS, 6 ch
Язык : Russian

Аудио #6
Идентификатор : 7
Формат : AC-3
Формат/Информация : Audio Coding 3
Расширение режима : CM (complete main)
Идентификатор кодека : A_AC3
Продолжительность : 1 ч. 29 м.
Вид битрейта : Постоянный
Битрейт : 192 Кбит/сек
Каналы : 2 канала
Расположение каналов : Front: L R
Частота : 48,0 КГц
Битовая глубина : 16 бит
Метод сжатия : С потерями
Размер потока : 123 Мбайт (1%)
Заголовок : TRK "Russia", AC3, 2 ch
Язык : Russian

Аудио #7
Идентификатор : 8
Формат : AC-3
Формат/Информация : Audio Coding 3
Расширение режима : CM (complete main)
Идентификатор кодека : A_AC3
Продолжительность : 1 ч. 29 м.
Вид битрейта : Постоянный
Битрейт : 192 Кбит/сек
Каналы : 2 канала
Расположение каналов : Front: L R
Частота : 48,0 КГц
Битовая глубина : 16 бит
Метод сжатия : С потерями
Размер потока : 123 Мбайт (1%)
Заголовок : Gorchakov, AC3, 2 ch
Язык : Russian

Аудио #8
Идентификатор : 9
Формат : AC-3
Формат/Информация : Audio Coding 3
Расширение режима : CM (complete main)
Идентификатор кодека : A_AC3
Продолжительность : 1 ч. 29 м.
Вид битрейта : Постоянный
Битрейт : 192 Кбит/сек
Каналы : 2 канала
Расположение каналов : Front: L R
Частота : 48,0 КГц
Битовая глубина : 16 бит
Метод сжатия : С потерями
Размер потока : 123 Мбайт (1%)
Заголовок : Zhivov, AC3, 2 ch
Язык : Russian

Аудио #9
Идентификатор : 10
Формат : DTS
Формат/Информация : Digital Theater Systems
Идентификатор кодека : A_DTS
Продолжительность : 1 ч. 29 м.
Вид битрейта : Постоянный
Битрейт : 1510 Кбит/сек
Каналы : 6 каналов
Расположение каналов : Front: L C R, Side: L R, LFE
Частота : 48,0 КГц
Битовая глубина : 24 бит
Метод сжатия : С потерями
Размер потока : 968 Мбайт (7%)
Заголовок : English, DTS, 6 ch
Язык : English

Текст #1
Идентификатор : 11
Формат : UTF-8
Идентификатор кодека : S_TEXT/UTF8
Идентификатор кодека/Информация : UTF-8 Plain Text
Заголовок : Kinomaniya
Язык : Russian

Текст #2
Идентификатор : 12
Формат : UTF-8
Идентификатор кодека : S_TEXT/UTF8
Идентификатор кодека/Информация : UTF-8 Plain Text
Заголовок : CP Digital
Язык : Russian

Текст #3
Идентификатор : 13
Формат : UTF-8
Идентификатор кодека : S_TEXT/UTF8
Идентификатор кодека/Информация : UTF-8 Plain Text
Заголовок : English
Язык : English

Меню
00:00:00.000 : en:00:00:00.000
00:03:24.037 : en:00:03:24.037
00:08:21.835 : en:00:08:21.835
00:12:50.812 : en:00:12:50.812
00:16:34.118 : en:00:16:34.118
00:22:57.668 : en:00:22:57.668
00:27:37.239 : en:00:27:37.239
00:30:17.899 : en:00:30:17.899
00:35:19.534 : en:00:35:19.534
00:38:21.591 : en:00:38:21.591
00:41:58.433 : en:00:41:58.433
00:44:50.771 : en:00:44:50.771
00:49:40.853 : en:00:49:40.853
00:53:36.713 : en:00:53:36.713
00:58:30.966 : en:00:58:30.966
01:00:41.721 : en:01:00:41.721
01:04:53.765 : en:01:04:53.765
01:09:32.168 : en:01:09:32.168
01:12:02.818 : en:01:12:02.818
01:15:42.955 : en:01:15:42.955
01:19:08.619 : en:01:19:08.619
01:23:22.414 : en:01:23:22.414
01:24:20.305 : en:01:24:20.305
Свернуть
Свернуть

Кошмар на улице Вязов 6: Фредди мертв / Freddy's Dead: The Final Nightmare
Кошмар на улице Вязов 6: Фредди мертв / Freddy's Dead: The Final Nightmare

Изображение

Год выпуска: 1991
Страна: США
Жанр: ужасы
Продолжительность: 1:29:12
Перевод: Профессиональный (многоголосый, закадровый) Позитив / Киномания / CP Digital
Профессиональный (двухголосый, закадровый) НТВ
Авторский (одноголосый, закадровый) Гаврилов / Горчаков
Субтитры: русские (x2), английские

Режиссер: Рейчел Тэлалей / Rachel Talalay

В ролях: Роберт Инглунд, Лиза Зейн, Шон Гринблатт, Лесли Дин, Рики Дин Логан, Брекин Мейер, Яфет Котто, Том
Арнольд, Розанна, Элинор Донахью

Описание: Здесь выясняются причины появления духа-изверга Фредди Крюгера, с самого начала мстившего жителям своего родного городка. С детства заброшенный всеми, Фредди вырос очень озлобленным. Его терзает мания убийства, и он убивает детей, заманивая их в старую котельную. Когда суд по формальным причинам выносит маньяку оправдательный приговор, разъяренные родители жертв линчуют его.
Качество: BDRip
Формат: MKV
Видео: MPEG-4/AVC 11900 kbps 1920x1080p / 23,976 fps / High Profile 4.1
Аудио: DTS Russian 5.1 / 48 kHz / 1510 kbps / 24-bit [Позитив]
Аудио: Dolby Digital Audio Russian 2.0 / 48 kHz / 192 kbps [НТВ]
Аудио: DTS Russian 5.1 / 48 kHz / 1510 kbps / 24-bit [Киномания]
Аудио: Dolby Digital Audio Russian 2.0 / 48 kHz / 192 kbps [CP Digital]
Аудио: DTS Russian 5.1 / 48 kHz / 1510 kbps / 24-bit [Гаврилов]
Аудио: Dolby Digital Audio Russian 2.0 / 48 kHz / 192 kbps [Горчаков]
Аудио: DTS English 5.1 / 48 kHz / 1510 kbps / 24-bit
скриншоты
Изображение

Изображение

Изображение
Свернуть
Mi
Формат : Matroska
Версия формата : Version 2
Размер файла : 11,5 Гбайт
Продолжительность : 1 ч. 29 м.
Общий поток : 18,5 Мбит/сек
Название фильма : Nightmare.on.Elm.Street.6.1991.1080p.Bluray.AVC.Remux
Дата кодирования : UTC 2012-01-09 05:44:38
Программа кодирования : mkvmerge v5.2.1 ('A Far Off Place') built on Jan 2 2012 23:21:10
Библиотека кодирования : libebml v1.2.3 + libmatroska v1.3.0

Видео
Идентификатор : 1
Формат : AVC
Формат/Информация : Advanced Video Codec
Профиль формата : High@L4.1
Параметр CABAC формата : Да
Параметр ReFrames формата : 4 кадра
Идентификатор кодека : V_MPEG4/ISO/AVC
Продолжительность : 1 ч. 29 м.
Битрейт : 11,9 Мбит/сек
Ширина : 1920 пикселей
Высота : 1080 пикселей
Соотношение сторон : 16:9
Частота кадров : 23,976 кадра/сек
Цветовое пространство : YUV
Субдискретизация насыщенности : 4:2:0
Битовая глубина : 8 бит
Тип развёртки : Прогрессивная
Бит/(Пиксели*Кадры) : 0.239
Размер потока : 7,18 Гбайт (62%)
Библиотека кодирования : x264 core 115 r1936 7a9e08d
Настройки программы : cabac=1 / ref=4 / deblock=1:-1:-1 / analyse=0x3:0x133 / me=umh / subme=10 / psy=1 / psy_rd=1.00:0.10 / mixed_ref=1 / me_range=24 / chroma_me=1 / trellis=2 / 8x8dct=1 / cqm=0 / deadzone=21,11 / fast_pskip=0 / chroma_qp_offset=-3 / threads=9 / sliced_threads=0 / nr=0 / decimate=1 / interlaced=0 / bluray_compat=0 / constrained_intra=0 / bframes=10 / b_pyramid=2 / b_adapt=2 / b_bias=0 / direct=3 / weightb=1 / open_gop=0 / weightp=2 / keyint=250 / keyint_min=23 / scenecut=40 / intra_refresh=0 / rc_lookahead=50 / rc=2pass / mbtree=1 / bitrate=11900 / ratetol=1.0 / qcomp=0.70 / qpmin=0 / qpmax=69 / qpstep=4 / cplxblur=20.0 / qblur=0.5 / ip_ratio=1.40 / aq=1:1.00
Язык : English

Аудио #1
Идентификатор : 2
Формат : DTS
Формат/Информация : Digital Theater Systems
Идентификатор кодека : A_DTS
Продолжительность : 1 ч. 29 м.
Вид битрейта : Постоянный
Битрейт : 1510 Кбит/сек
Каналы : 6 каналов
Расположение каналов : Front: L C R, Side: L R, LFE
Частота : 48,0 КГц
Битовая глубина : 24 бит
Метод сжатия : С потерями
Размер потока : 963 Мбайт (8%)
Заголовок : Pozitiv, DTS, 6 ch
Язык : Russian

Аудио #2
Идентификатор : 3
Формат : AC-3
Формат/Информация : Audio Coding 3
Расширение режима : CM (complete main)
Идентификатор кодека : A_AC3
Продолжительность : 1 ч. 29 м.
Вид битрейта : Постоянный
Битрейт : 192 Кбит/сек
Каналы : 2 канала
Расположение каналов : Front: L R
Частота : 48,0 КГц
Битовая глубина : 16 бит
Метод сжатия : С потерями
Размер потока : 123 Мбайт (1%)
Заголовок : NTV, AC3, 2 ch
Язык : Russian

Аудио #3
Идентификатор : 4
Формат : DTS
Формат/Информация : Digital Theater Systems
Идентификатор кодека : A_DTS
Продолжительность : 1 ч. 29 м.
Вид битрейта : Постоянный
Битрейт : 1510 Кбит/сек
Каналы : 6 каналов
Расположение каналов : Front: L C R, Side: L R, LFE
Частота : 48,0 КГц
Битовая глубина : 24 бит
Метод сжатия : С потерями
Размер потока : 963 Мбайт (8%)
Заголовок : Kinomaniya, DTS, 6 ch
Язык : Russian

Аудио #4
Идентификатор : 5
Формат : AC-3
Формат/Информация : Audio Coding 3
Расширение режима : CM (complete main)
Идентификатор кодека : A_AC3
Продолжительность : 1 ч. 29 м.
Вид битрейта : Постоянный
Битрейт : 192 Кбит/сек
Каналы : 2 канала
Расположение каналов : Front: L R
Частота : 48,0 КГц
Битовая глубина : 16 бит
Метод сжатия : С потерями
Размер потока : 123 Мбайт (1%)
Заголовок : CP Digital, AC3, 2 ch
Язык : Russian

Аудио #5
Идентификатор : 6
Формат : DTS
Формат/Информация : Digital Theater Systems
Идентификатор кодека : A_DTS
Продолжительность : 1 ч. 29 м.
Вид битрейта : Постоянный
Битрейт : 1510 Кбит/сек
Каналы : 6 каналов
Расположение каналов : Front: L C R, Side: L R, LFE
Частота : 48,0 КГц
Битовая глубина : 24 бит
Метод сжатия : С потерями
Размер потока : 963 Мбайт (8%)
Заголовок : Gavrilov, DTS, 6ch
Язык : Russian

Аудио #6
Идентификатор : 7
Формат : AC-3
Формат/Информация : Audio Coding 3
Расширение режима : CM (complete main)
Идентификатор кодека : A_AC3
Продолжительность : 1 ч. 29 м.
Вид битрейта : Постоянный
Битрейт : 192 Кбит/сек
Каналы : 2 канала
Расположение каналов : Front: L R
Частота : 48,0 КГц
Битовая глубина : 16 бит
Метод сжатия : С потерями
Размер потока : 123 Мбайт (1%)
Заголовок : Gorchakov, AC3, 2 ch
Язык : Russian

Аудио #7
Идентификатор : 8
Формат : DTS
Формат/Информация : Digital Theater Systems
Идентификатор кодека : A_DTS
Продолжительность : 1 ч. 29 м.
Вид битрейта : Постоянный
Битрейт : 1510 Кбит/сек
Каналы : 6 каналов
Расположение каналов : Front: L C R, Side: L R, LFE
Частота : 48,0 КГц
Битовая глубина : 24 бит
Метод сжатия : С потерями
Размер потока : 963 Мбайт (8%)
Заголовок : English, DTS, 6 ch
Язык : English

Текст #1
Идентификатор : 9
Формат : UTF-8
Идентификатор кодека : S_TEXT/UTF8
Идентификатор кодека/Информация : UTF-8 Plain Text
Заголовок : Kinomaniya
Язык : Russian

Текст #2
Идентификатор : 10
Формат : UTF-8
Идентификатор кодека : S_TEXT/UTF8
Идентификатор кодека/Информация : UTF-8 Plain Text
Заголовок : CP Digital
Язык : Russian

Текст #3
Идентификатор : 11
Формат : UTF-8
Идентификатор кодека : S_TEXT/UTF8
Идентификатор кодека/Информация : UTF-8 Plain Text
Заголовок : English
Язык : English

Меню
00:00:00.000 : en:00:00:00.000
00:04:45.285 : en:00:04:45.285
00:08:23.503 : en:00:08:23.503
00:12:56.776 : en:00:12:56.776
00:14:31.204 : en:00:14:31.204
00:15:43.109 : en:00:15:43.109
00:19:00.848 : en:00:19:00.848
00:20:25.558 : en:00:20:25.558
00:24:34.973 : en:00:24:34.973
00:29:40.153 : en:00:29:40.153
00:31:46.321 : en:00:31:46.321
00:39:35.039 : en:00:39:35.039
00:42:09.277 : en:00:42:09.277
00:46:23.906 : en:00:46:23.906
00:49:28.048 : en:00:49:28.048
00:54:46.492 : en:00:54:46.492
00:58:12.322 : en:00:58:12.322
01:02:32.916 : en:01:02:32.916
01:05:41.396 : en:01:05:41.396
01:08:32.900 : en:01:08:32.900
01:10:37.650 : en:01:10:37.650
01:17:34.108 : en:01:17:34.108
01:24:27.562 : en:01:24:27.562
Свернуть
Свернуть

Кошмар на улице Вязов 7: Новый Кошмар / New Nightmare
Кошмар на улице Вязов 7: Новый Кошмар / New Nightmare

Изображение

Год выпуска: 1994
Страна: США
Жанр: ужасы
Продолжительность: 1:52:07
Перевод: Профессиональный (многоголосый, закадровый) Позитив / Киномания / CP Digital
Профессиональный (двухголосый, закадровый) НТВ
Авторский (одноголосый, закадровый) Санаев / Дохалов
Субтитры: русские (x2), английские

Режиссер: Уэс Крэйвен / Wes Craven

В ролях: Хезер Лэнгенкэмп, Роберт Инглунд, Мико Хьюз, Уэс Крэйвен, Джон Сэксон, Роберт Шэй, Сара Ришер, Марианн Маддалена, Дэвид Ньюсом

Описание: Героиня предыдущей серии, одержавшая победу над Фредди, выросла и вышла замуж за постановщика спецэффектов, разработавшего знаменитую ручку с маникюром. Снимается новый фильм про Крюгера, так как многочисленные поклонники требуют оживления своего любимчика. И снова начинаются кошмары, преследующие теперь сына нашей героини.
Качество: BDRip 1080p
Формат: MKV
Видео: MPEG-4/AVC 12000 kbps 1920x1080p / 23,976 fps / High Profile 4.1
Аудио: DTS Russian 5.1 / 48 kHz / 1510 kbps / 24-bit [Позитив]
Аудио: Dolby Digital Audio Russian 2.0 / 48 kHz / 192 kbps [НТВ]
Аудио: DTS Russian 5.1 / 48 kHz / 1510 kbps / 24-bit [Киномания]
Аудио: Dolby Digital Audio Russian 2.0 / 48 kHz / 192 kbps [CP Digital]
Аудио: DTS Russian 5.1 / 48 kHz / 1510 kbps / 24-bit [Дохалов]
Аудио: Dolby Digital Audio Russian 2.0 / 48 kHz / 192 kbps [Санаев]
Аудио: DTS English 5.1 / 48 kHz / 1510 kbps / 24-bit
скриншоты
Изображение

Изображение

Изображение
Свернуть
Mi
Формат : Matroska
Версия формата : Version 2
Размер файла : 14,6 Гбайт
Продолжительность : 1 ч. 52 м.
Общий поток : 18,6 Мбит/сек
Название фильма : Nightmare.on.Elm.Street.7.1994.1080p.Bluray.AVC.Remux
Дата кодирования : UTC 2012-01-10 01:45:11
Программа кодирования : mkvmerge v5.2.1 ('A Far Off Place') built on Jan 2 2012 23:21:10
Библиотека кодирования : libebml v1.2.3 + libmatroska v1.3.0

Видео
Идентификатор : 1
Формат : AVC
Формат/Информация : Advanced Video Codec
Профиль формата : High@L4.1
Параметр CABAC формата : Да
Параметр ReFrames формата : 4 кадра
Идентификатор кодека : V_MPEG4/ISO/AVC
Продолжительность : 1 ч. 52 м.
Битрейт : 12,0 Мбит/сек
Ширина : 1920 пикселей
Высота : 1080 пикселей
Соотношение сторон : 16:9
Частота кадров : 23,976 кадра/сек
Цветовое пространство : YUV
Субдискретизация насыщенности : 4:2:0
Битовая глубина : 8 бит
Тип развёртки : Прогрессивная
Бит/(Пиксели*Кадры) : 0.241
Размер потока : 9,10 Гбайт (62%)
Библиотека кодирования : x264 core 115 r1936 7a9e08d
Настройки программы : cabac=1 / ref=4 / deblock=1:-1:-1 / analyse=0x3:0x133 / me=umh / subme=10 / psy=1 / psy_rd=1.00:0.10 / mixed_ref=1 / me_range=24 / chroma_me=1 / trellis=2 / 8x8dct=1 / cqm=0 / deadzone=21,11 / fast_pskip=0 / chroma_qp_offset=-3 / threads=9 / sliced_threads=0 / nr=0 / decimate=1 / interlaced=0 / bluray_compat=0 / constrained_intra=0 / bframes=11 / b_pyramid=2 / b_adapt=2 / b_bias=0 / direct=3 / weightb=1 / open_gop=0 / weightp=2 / keyint=250 / keyint_min=23 / scenecut=40 / intra_refresh=0 / rc_lookahead=50 / rc=2pass / mbtree=1 / bitrate=12000 / ratetol=1.0 / qcomp=0.70 / qpmin=0 / qpmax=69 / qpstep=4 / cplxblur=20.0 / qblur=0.5 / ip_ratio=1.40 / aq=1:1.00
Язык : English

Аудио #1
Идентификатор : 2
Формат : DTS
Формат/Информация : Digital Theater Systems
Идентификатор кодека : A_DTS
Продолжительность : 1 ч. 52 м.
Вид битрейта : Постоянный
Битрейт : 1510 Кбит/сек
Каналы : 6 каналов
Расположение каналов : Front: L C R, Side: L R, LFE
Частота : 48,0 КГц
Битовая глубина : 24 бит
Метод сжатия : С потерями
Размер потока : 1,18 Гбайт (8%)
Заголовок : Pozitiv, DTS, 6 ch
Язык : Russian

Аудио #2
Идентификатор : 3
Формат : AC-3
Формат/Информация : Audio Coding 3
Расширение режима : CM (complete main)
Идентификатор кодека : A_AC3
Продолжительность : 1 ч. 52 м.
Вид битрейта : Постоянный
Битрейт : 192 Кбит/сек
Каналы : 2 канала
Расположение каналов : Front: L R
Частота : 48,0 КГц
Битовая глубина : 16 бит
Метод сжатия : С потерями
Размер потока : 154 Мбайт (1%)
Заголовок : NTV, AC3, 2 ch
Язык : Russian

Аудио #3
Идентификатор : 4
Формат : DTS
Формат/Информация : Digital Theater Systems
Идентификатор кодека : A_DTS
Продолжительность : 1 ч. 52 м.
Вид битрейта : Постоянный
Битрейт : 1510 Кбит/сек
Каналы : 6 каналов
Расположение каналов : Front: L C R, Side: L R, LFE
Частота : 48,0 КГц
Битовая глубина : 24 бит
Метод сжатия : С потерями
Размер потока : 1,18 Гбайт (8%)
Заголовок : Kinomaniya, DTS, 6 ch
Язык : Russian

Аудио #4
Идентификатор : 5
Формат : AC-3
Формат/Информация : Audio Coding 3
Расширение режима : CM (complete main)
Идентификатор кодека : A_AC3
Продолжительность : 1 ч. 52 м.
Вид битрейта : Постоянный
Битрейт : 192 Кбит/сек
Каналы : 2 канала
Расположение каналов : Front: L R
Частота : 48,0 КГц
Битовая глубина : 16 бит
Метод сжатия : С потерями
Размер потока : 154 Мбайт (1%)
Заголовок : CP Digital, AC3, 2 ch
Язык : Russian

Аудио #5
Идентификатор : 6
Формат : DTS
Формат/Информация : Digital Theater Systems
Идентификатор кодека : A_DTS
Продолжительность : 1 ч. 52 м.
Вид битрейта : Постоянный
Битрейт : 1510 Кбит/сек
Каналы : 6 каналов
Расположение каналов : Front: L C R, Side: L R, LFE
Частота : 48,0 КГц
Битовая глубина : 24 бит
Метод сжатия : С потерями
Размер потока : 1,18 Гбайт (8%)
Заголовок : Dohalov, DTS, 6 ch
Язык : Russian

Аудио #6
Идентификатор : 7
Формат : AC-3
Формат/Информация : Audio Coding 3
Расширение режима : CM (complete main)
Идентификатор кодека : A_AC3
Продолжительность : 1 ч. 52 м.
Вид битрейта : Постоянный
Битрейт : 192 Кбит/сек
Каналы : 2 канала
Расположение каналов : Front: L R
Частота : 48,0 КГц
Битовая глубина : 16 бит
Метод сжатия : С потерями
Размер потока : 154 Мбайт (1%)
Заголовок : Sanaev, AC3, 2 ch
Язык : Russian

Аудио #7
Идентификатор : 8
Формат : DTS
Формат/Информация : Digital Theater Systems
Идентификатор кодека : A_DTS
Продолжительность : 1 ч. 52 м.
Вид битрейта : Постоянный
Битрейт : 1510 Кбит/сек
Каналы : 6 каналов
Расположение каналов : Front: L C R, Side: L R, LFE
Частота : 48,0 КГц
Битовая глубина : 24 бит
Метод сжатия : С потерями
Размер потока : 1,18 Гбайт (8%)
Заголовок : English, DTS, 6 ch
Язык : English

Текст #1
Идентификатор : 9
Формат : UTF-8
Идентификатор кодека : S_TEXT/UTF8
Идентификатор кодека/Информация : UTF-8 Plain Text
Заголовок : Kinomaniya
Язык : Russian

Текст #2
Идентификатор : 10
Формат : UTF-8
Идентификатор кодека : S_TEXT/UTF8
Идентификатор кодека/Информация : UTF-8 Plain Text
Заголовок : CP Digital
Язык : Russian

Текст #3
Идентификатор : 11
Формат : UTF-8
Идентификатор кодека : S_TEXT/UTF8
Идентификатор кодека/Информация : UTF-8 Plain Text
Заголовок : English
Язык : English

Меню
00:00:00.000 : en:00:00:00.000
00:05:46.721 : en:00:05:46.721
00:09:10.633 : en:00:09:10.633
00:11:52.962 : en:00:11:52.962
00:15:12.120 : en:00:15:12.120
00:17:19.080 : en:00:17:19.080
00:21:56.315 : en:00:21:56.315
00:25:44.460 : en:00:25:44.460
00:29:18.632 : en:00:29:18.632
00:32:53.305 : en:00:32:53.305
00:36:00.408 : en:00:36:00.408
00:38:52.330 : en:00:38:52.330
00:43:36.781 : en:00:43:36.781
00:47:20.796 : en:00:47:20.796
00:50:48.629 : en:00:50:48.629
00:55:07.888 : en:00:55:07.888
00:59:20.140 : en:00:59:20.140
01:04:58.978 : en:01:04:58.978
01:08:58.343 : en:01:08:58.343
01:11:52.517 : en:01:11:52.517
01:14:31.217 : en:01:14:31.217
01:16:49.104 : en:01:16:49.104
01:20:10.139 : en:01:20:10.139
01:22:39.204 : en:01:22:39.204
01:25:06.393 : en:01:25:06.393
01:29:11.263 : en:01:29:11.263
01:32:04.269 : en:01:32:04.269
01:42:29.518 : en:01:42:29.518
01:43:53.853 : en:01:43:53.853
Свернуть
Свернуть

Изображение
_________________
Изображение
Не в сети
Профиль  
 Добавлено: 2012-04-05 10:55 (спустя 1 час 20 минут)
Аватара пользователя
Стаж: 8 лет 3 месяца
Возраст: 43
Сообщений: 3290
Спасибок: 21012
Лайков: 3
в объявления на 10 дней :)
_________________
Изображение
Не в сети
Профиль  
 Добавлено: 2012-08-09 20:49 (спустя 4 месяца 4 дня)
Стаж: 6 лет 3 месяца
Сообщений: 493
Лайков: 28
О да! Пепел Фредди стучит в наши сердца! Фредди умер, но дело его живет! :-D

Забавно, кстати, что великий и ужасный Уэс Крэйвен снял только первую и последнюю картины. Раньше как-то не замечал...


Тема поднималась пользователем Артурыч 2012-08-09 20:49.
Не в сети
Профиль  
Начать новую темуОтветить на тему  [ Сообщений: 3 ] 
Вы не можете начинать темы
Вы не можете отвечать на сообщения
Вы не можете редактировать свои сообщения
Вы не можете удалять свои сообщения