Правила форума

  • В этом разделе создание новых тем Запрещено.
  • Для создания новых тем пользуйтесь Корневым разделом DVD и HD фильмы.
Начать новую темуОтветить на тему  [ 1 сообщение ] 
Торрент файл
Размер: 4.66 GB • Зарегистрирован: 4 года 1 месяц • Статус: Проверено
Скачан: 47 раз • Желающих скачать: 0 • Поблагодарили: 13 раз
 Раздают: 0  |  0 KB/s  ]   Качают: 0  |  0 KB/s  ] 
 Полного источника не было 1 год 2 месяца 
Сообщения
 Добавлено: 2012-10-18 17:46
Модератор
Аватара пользователя
Стаж: 8 лет
Сообщений: 1991
Спасибок: 129861
Лайков: 20
Космополис / Cosmopolis

Изображение
Год выпуска: 2012
Страна: Изображение Франция, Изображение Канада, Португалия, Изображение Италия
Жанр: триллер, драма
Продолжительность:
01:48:56

Перевод: Профессиональный (полное дублирование) [лицензия]

Режиссер: Дэвид Кроненберг
Сценарий: Дэвид Кроненберг, Дон ДеЛилло
Продюсер: Паулу Бранку, Мартин Кац, Джозеф Боччиа, Эдуард Карминьяк, Уолтер Гаспарович
Оператор: Питер Сушицки
Композитор: Говард Шор

В ролях:
Роберт Паттинсон (Eric Packer), Сара Гадон (Elise Shifrin), Пол Джаматти (Benno Levin), Кевин Дюран (Torval), Абдул Айула (Ibrahim Hamadou), Жюльет Бинош (Didi Fancher), Эмили Хэмпшир (Jane Melman), Боб Бэйнборо (Dr. Ingram), Саманта Мортон (Vija Kinsky), Желько Кесойевич (Danko), Джей Барушель (Shiner), Филлип Нозука (Michael Chin)

Описание: 24 часа из жизни 28-летнего миллиардера-финансиста Эрика Пэкера, который изменяет своей молодой жене, подвергается нападению и разом теряет все свое состояние. Действие ленты будет разворачиваться на Манхэттене в течение одних суток.


Изображение: 4.790 (6 445)
Изображение: 5.60 (10 717)

MPAA: Изображение - Лицам до 17 лет обязательно присутствие взрослого

Доп. Информация
Бюджет: $20 500 000
Сборы в США: $763 556
Сборы в мире: $6 063 556
Мировая премьера: 25 мая 2012
Изображение Релиз на DVD: 6 сентября 2012, «Новый Диск», «New Dream media»

Свернуть


Качество: BDRip 720p R5

Формат: MKV
Видео: AVC; 1280x688 (1.860); 4229 Kbps; 23,976 fps; 0,200 bpp
Аудио №1: русский; AC3; 384 Kbps; CBR; 6 ch; 16 bit
Аудио №2: английский; DTS; 1510 Kbps; CBR; 6 ch; 24 bit



Знаете ли Вы, что...
  • Колин Фаррел изначально должен был сниматься в фильме, но покинул проект из-за несогласованности расписаний съемок с фильмом «Вспомнить всё» (2012). В итоге его место занял Роберт Паттинсон.
  • Марион Котийяр должна была сниматься в фильме, но отказалась в связи с беременностью.
  • После того как проект покинула Марион Котийяр, на ее место рассматривались кандидатуры Нуми Рапас и Киры Найтли.
  • Дэвид Кроненберг написал сценарий за шесть дней.
Свернуть
BDInfo
General
Unique ID : 210596394447295303833591615746108583410 (0x9E6F63E5C274C3F998A1AC4541186DF2)
Complete name : D:\Cosmopolis.2012.BDRip.720p..mkv
Format : Matroska
Format version : Version 2
File size : 4.66 GiB
Duration : 1h 48mn
Overall bit rate : 6 120 Kbps
Movie name : Cosmopolis
Encoded date : UTC 2012-09-26 18:56:04
Writing application : mkvmerge v3.3.0 ('Language') built on Mar 24 2010 14:59:24
Writing library : libebml v0.8.0 + libmatroska v0.9.0
Video
ID : 1
Format : AVC
Format/Info : Advanced Video Codec
Format profile : High@L4.1
Format settings, CABAC : Yes
Format settings, ReFrames : 5 frames
Codec ID : V_MPEG4/ISO/AVC
Duration : 1h 48mn
Bit rate : 4 229 Kbps
Width : 1 280 pixels
Height : 688 pixels
Display aspect ratio : 1.860
Frame rate : 23.976 fps
Color space : YUV
Chroma subsampling : 4:2:0
Bit depth : 8 bits
Scan type : Progressive
Bits/(Pixel*Frame) : 0.200
Stream size : 3.12 GiB (67%)
Title : Cosmopolis (2012)
Writing library : x264 core 128 r2216 198a7ea
Encoding settings : cabac=1 / ref=5 / deblock=1:0:0 / analyse=0x3:0x113 / me=umh / subme=8 / psy=1 / psy_rd=1.00:0.00 / mixed_ref=1 / me_range=16 / chroma_me=1 / trellis=1 / 8x8dct=1 / cqm=0 / deadzone=21,11 / fast_pskip=1 / chroma_qp_offset=-2 / threads=9 / lookahead_threads=1 / sliced_threads=0 / nr=0 / decimate=1 / interlaced=0 / bluray_compat=0 / constrained_intra=0 / bframes=3 / b_pyramid=2 / b_adapt=2 / b_bias=0 / direct=3 / weightb=1 / open_gop=0 / weightp=2 / keyint=240 / keyint_min=24 / scenecut=40 / intra_refresh=0 / rc_lookahead=50 / rc=2pass / mbtree=1 / bitrate=4229 / ratetol=1.0 / qcomp=0.60 / qpmin=0 / qpmax=69 / qpstep=4 / cplxblur=20.0 / qblur=0.5 / ip_ratio=1.40 / aq=1:1.00
Default : Yes
Forced : No
Audio #1
ID : 2
Format : AC-3
Format/Info : Audio Coding 3
Mode extension : CM (complete main)
Codec ID : A_AC3
Duration : 1h 48mn
Bit rate mode : Constant
Bit rate : 384 Kbps
Channel(s) : 6 channels
Channel positions : Front: L C R, Side: L R, LFE
Sampling rate : 48.0 KHz
Bit depth : 16 bits
Compression mode : Lossy
Stream size : 299 MiB (6%)
Title : Dubbing
Language : Russian
Default : Yes
Forced : No
Audio #2
ID : 3
Format : DTS
Format/Info : Digital Theater Systems
Codec ID : A_DTS
Duration : 1h 48mn
Bit rate mode : Constant
Bit rate : 1 510 Kbps
Channel(s) : 6 channels
Channel positions : Front: L C R, Side: L R, LFE
Sampling rate : 48.0 KHz
Bit depth : 24 bits
Compression mode : Lossy
Stream size : 1.15 GiB (25%)
Title : Original
Language : English
Default : No
Forced : No
Свернуть
Скриншоты
Изображение
Изображение
Изображение
Изображение
Свернуть

_________________
Себе ты можешь не качать, но раздавать другим обязан!
Не в сети
Профиль  
Начать новую темуОтветить на тему  [ 1 сообщение ] 
Вы не можете начинать темы
Вы не можете отвечать на сообщения
Вы не можете редактировать свои сообщения
Вы не можете удалять свои сообщения