Правила форума

  • В этом разделе создание новых тем Запрещено.
  • Для создания новых тем пользуйтесь Корневым разделом DVD и HD фильмы.
Начать новую темуОтветить на тему  [ Сообщений: 3 ] 
Торрент файл
Размер: 6.86 GB • Зарегистрирован: 5 лет 5 месяцев • Статус: Проверено
Скачан: 49 раз • Желающих скачать: 0 • Поблагодарили: 10 раз
 Раздают: 0  |  0 KB/s  ]   Качают: 0  |  0 KB/s  ] 
 Полного источника не было 15 дней 
Сообщения
 Добавлено: 2011-07-06 21:34
Модератор релиз-группы
Аватара пользователя
Стаж: 9 лет 1 месяц
Возраст: 97
Сообщений: 11659
Спасибок: 6532
Лайков: 269
Костолом / Mean Machine

Изображение


Год выпуска: 2001
Страна: США, Великобритания
Жанр: драма, комедия, спорт
Продолжительность: 01:35:07
Перевод: Профессиональный (многоголосый закадровый)
Авторский одноголосый (Ю.Живов)
Оригинальная звуковая дорожка
Субтитры: Нет

Режиссёр: Барри Сколник / Barry Skolnick
В ролях: Винни Джонс, Джейсон Стэтхэм, Джейсон Флеминг, Дэвид Келли, Дэвид Хеммингс, Ральф Браун, Вэс Блэквуд, Робби Ги, Джофф Белл, Джон Форджэм
Описание: У Дэнни Михэна есть все: деньги, слава, дорогие машины. Он - капитан английской национальной команды по футболу. Но однажды идиллия нарушается; Дэнни получает трехлетний тюремный срок за нападение на офицера полиции в состоянии алкогольного опьянения.Начальник тюрьмы, в которой оказался Дэнни, вложил немало собственных денег в создание футбольной команды и решил заполучить маститого футболиста в качестве тренера для своей команды. Его мечта - выиграть «тюремную лигу».Но Дэнни создает команду из заключенных, которая должна сыграть первый матч со своими тюремщиками. Начальник тюрьмы не возражает; он не верит, что заключенные могут выиграть.
Изображение



Качество: HDTV
Формат: ts
Видео кодек: MPEG4 Video (H264)
Аудио кодек: AC3 (Dolby Digital)
Видео: 1920x1080i, 25 fps, 8 956 kbps, 0.173 bit/pixel
Аудио #1: Russian 48 kHz, AC-3, 2 ch, 192 kbps (ТНТ) [Профессиональный (многоголосый закадровый)]
Аудио #2: Russian 48 kHz, AC-3, 6 ch, 384 kbps [Авторский одноголосый (Ю.Живов)]
Аудио #3: English 48 kHz, AC-3, 6 ch, 384 kbps [Оригинальная звуковая дорожка]
Субтитры: Нет
Скриншоты
Изображение
Изображение
Изображение
Изображение
Изображение
Свернуть

Mi
Format : MPEG-TS
File size : 6.86 GiB
Duration : 1h 35mn
Overall bit rate : 10.3 Mbps
Maximum Overall bit rate : 35.5 Mbps

Video
ID : 4113 (0x1011)
Menu ID : 1 (0x1)
Format : AVC
Format/Info : Advanced Video Codec
Format profile : Main@L4.0
Format settings, CABAC : Yes
Format settings, ReFrames : 4 frames
Codec ID : 27
Duration : 1h 35mn
Bit rate mode : Variable
Bit rate : 8 846 Kbps
Maximum bit rate : 40.0 Mbps
Width : 1 920 pixels
Height : 1 080 pixels
Display aspect ratio : 16:9
Frame rate : 25.000 fps
Color space : YUV
Chroma subsampling : 4:2:0
Bit depth : 8 bits
Scan type : Interlaced
Scan order : Top Field First
Bits/(Pixel*Frame) : 0.171
Stream size : 5.88 GiB (86%)
Color primaries : BT.709-5, BT.1361, IEC 61966-2-4, SMPTE RP177
Transfer characteristics : BT.709-5, BT.1361
Matrix coefficients : BT.709-5, BT.1361, IEC 61966-2-4 709, SMPTE RP177

Audio #1
ID : 4352 (0x1100)
Menu ID : 1 (0x1)
Format : AC-3
Format/Info : Audio Coding 3
Mode extension : CM (complete main)
Codec ID : 129
Duration : 1h 35mn
Bit rate mode : Constant
Bit rate : 192 Kbps
Channel(s) : 2 channels
Channel positions : Front: L R
Sampling rate : 48.0 KHz
Bit depth : 16 bits
Compression mode : Lossy
Stream size : 131 MiB (2%)
Language : Russian

Audio #2
ID : 4353 (0x1101)
Menu ID : 1 (0x1)
Format : AC-3
Format/Info : Audio Coding 3
Mode extension : CM (complete main)
Codec ID : 129
Duration : 1h 35mn
Bit rate mode : Constant
Bit rate : 384 Kbps
Channel(s) : 6 channels
Channel positions : Front: L C R, Side: L R, LFE
Sampling rate : 48.0 KHz
Bit depth : 16 bits
Compression mode : Lossy
Stream size : 261 MiB (4%)
Language : Russian

Audio #3
ID : 4354 (0x1102)
Menu ID : 1 (0x1)
Format : AC-3
Format/Info : Audio Coding 3
Mode extension : CM (complete main)
Codec ID : 129
Duration : 1h 35mn
Bit rate mode : Constant
Bit rate : 384 Kbps
Channel(s) : 6 channels
Channel positions : Front: L C R, Side: L R, LFE
Sampling rate : 48.0 KHz
Bit depth : 16 bits
Compression mode : Lossy
Stream size : 261 MiB (4%)
Language : English
Свернуть
Не в сети
Профиль  
 Добавлено: 2011-12-21 22:34 (спустя 5 месяцев 15 дней)
Аватара пользователя
Стаж: 7 лет 8 месяцев
Сообщений: 29
Качество Г
Не в сети
Профиль  
 Добавлено: 2011-12-22 11:03 (спустя 12 часов)
Модератор релиз-группы
Аватара пользователя
Стаж: 9 лет 1 месяц
Возраст: 97
Сообщений: 11659
Спасибок: 6532
Лайков: 269

karpov1964:

Качество Г
найди лучшее и будут тебе благодарны, а пока за твой высер лишь минус :men:
_________________
Изображение
Не в сети
Профиль  
Начать новую темуОтветить на тему  [ Сообщений: 3 ] 
Вы не можете начинать темы
Вы не можете отвечать на сообщения
Вы не можете редактировать свои сообщения
Вы не можете удалять свои сообщения