Правила форума

  • В этом разделе создание новых тем Запрещено.
  • Для создания новых тем пользуйтесь Корневым разделом DVD и HD фильмы.
Начать новую темуОтветить на тему  [ 1 сообщение ] 
Торрент файл
Размер: 3.83 GB • Зарегистрирован: 4 года 6 месяцев • Статус: T Временный релиз
Скачан: 31 раз • Желающих скачать: 0 • Поблагодарили: 5 раз
 Раздают: 0  |  0 KB/s  ]   Качают: 0  |  0 KB/s  ] 
 Полного источника не было 2 года 11 месяцев 
Сообщения
 Добавлено: 2012-05-09 13:14
Книголюб
Аватара пользователя
Стаж: 7 лет 2 месяца
Сообщений: 2823
Спасибок: 48823
Лайков: 73
Косяки
Loosies

Изображение


Год выпуска: 2012
Страна: США
Слоган: «Love is not a crime.»
Жанр: драма, мелодрама, комедия
Продолжительность: 01:27:17
Перевод: Любительский (одноголосый закадровый)

Режиссёр: Майкл Корренте
В ролях: Питер Фачинелли, Джейми Александр, Майкл Мэдсен, Винсент Галло, Джо Пантольяно, Уильям Форсайт, Марианн Леоне, Кристи Карлсон Романо, Эрик Филлипс
Описание: Бобби — вор-карманник, на котором висит крупный долг отца. Матери он врет, что работает на Уолл-Стрит, сам же, надев строгий костюм и начистив ботинки, спускается в подземку и целый день обчищает карманы людей. Все окончательно переворачивается с ног на голову, когда девушка, с которой Бобби однажды переспал, заявляет ему, что беременна.
Рейтинг MPAA: Рейтинг PG-13 (Дети до 13 лет допускаются на фильм только с родителями)
Мировая премьера: 2 ноября 2011
Премьера в России: 16 августа 2012, «Top Film Distribution»
Изображение 6.598 244

Качество: BDRip 720p
Формат: MKV
Видео кодек: H264
Аудио кодек: AC3 (Dolby Digital)
Видео: 5630 kb/s, 1280x696 24fps 0.263Bits/Pixe
Аудио #1: MPEG Audio Layer 3 48000Hz stereo Russian
Аудио #2: Dolby AC3 48000Hz 6ch[English
MediaInfo
General
Unique ID : 183462149660387311954203608659887906904 (0x8A05865747366A37BB7833F257D7E058)
Complete name : K:\Torrent\loosies.BD720p.mkv
Format : Matroska
Format version : Version 2
File size : 3.83 GiB
Duration : 1h 28mn
Overall bit rate : 6 197 Kbps
Encoded date : UTC 2012-04-30 19:18:00
Writing application : mkvmerge v5.5.0 ('Healer') built on Apr 6 2012 21:43:24
Writing library : libebml v1.2.3 + libmatroska v1.3.0

Video
ID : 1
Format : AVC
Format/Info : Advanced Video Codec
Format profile : High@L4.1
Format settings, CABAC : Yes
Format settings, ReFrames : 5 frames
Codec ID : V_MPEG4/ISO/AVC
Duration : 1h 28mn
Bit rate : 5 630 Kbps
Width : 1 280 pixels
Height : 696 pixels
Display aspect ratio : 16:9
Frame rate : 24.000 fps
Color space : YUV
Chroma subsampling : 4:2:0
Bit depth : 8 bits
Scan type : Progressive
Bits/(Pixel*Frame) : 0.263
Stream size : 3.36 GiB (88%)
Writing library : x264 core 122 r2184 5c85e0a
Encoding settings : cabac=1 / ref=5 / deblock=1:0:0 / analyse=0x3:0x133 / me=umh / subme=7 / psy=1 / psy_rd=1.00:0.00 / mixed_ref=1 / me_range=16 / chroma_me=1 / trellis=1 / 8x8dct=1 / cqm=0 / deadzone=21,11 / fast_pskip=0 / chroma_qp_offset=-2 / threads=12 / sliced_threads=0 / nr=0 / decimate=1 / interlaced=0 / bluray_compat=0 / constrained_intra=0 / bframes=3 / b_pyramid=2 / b_adapt=2 / b_bias=0 / direct=3 / weightb=1 / open_gop=0 / weightp=2 / keyint=250 / keyint_min=24 / scenecut=40 / intra_refresh=0 / rc_lookahead=50 / rc=2pass / mbtree=1 / bitrate=5630 / ratetol=1.0 / qcomp=0.60 / qpmin=0 / qpmax=69 / qpstep=4 / cplxblur=20.0 / qblur=0.5 / ip_ratio=1.40 / aq=1:1.00
Language : English
Default : No
Forced : No

Audio #1
ID : 2
Format : MPEG Audio
Format version : Version 1
Format profile : Layer 3
Mode : Joint stereo
Codec ID : A_MPEG/L3
Codec ID/Hint : MP3
Duration : 1h 28mn
Bit rate mode : Constant
Bit rate : 192 Kbps
Channel(s) : 2 channels
Sampling rate : 48.0 KHz
Compression mode : Lossy
Stream size : 121 MiB (3%)
Title : L1
Writing library : LAME3.98.2
Language : Russian
Default : Yes
Forced : No

Audio #2
ID : 3
Format : AC-3
Format/Info : Audio Coding 3
Mode extension : CM (complete main)
Codec ID : A_AC3
Duration : 1h 28mn
Bit rate mode : Constant
Bit rate : 448 Kbps
Channel(s) : 6 channels
Channel positions : Front: L C R, Side: L R, LFE
Sampling rate : 48.0 KHz
Bit depth : 16 bits
Compression mode : Lossy
Stream size : 283 MiB (7%)
Language : English
Default : No
Forced : No


Свернуть
Скриншоты
Изображение
Изображение
Изображение
Свернуть
Не в сети
Профиль  
Начать новую темуОтветить на тему  [ 1 сообщение ] 
Вы не можете начинать темы
Вы не можете отвечать на сообщения
Вы не можете редактировать свои сообщения
Вы не можете удалять свои сообщения