Правила форума

  • В этом разделе создание новых тем Запрещено.
  • Для создания новых тем пользуйтесь Корневым разделом DVD и HD фильмы.
Начать новую темуОтветить на тему  [ 1 сообщение ] 
Торрент файл
Размер: 6.22 GB • Зарегистрирован: 4 года 11 месяцев • Статус: Проверено
Скачан: 227 раз • Желающих скачать: 0 • Поблагодарили: 42 раза
 Раздают: 0  |  0 KB/s  ]   Качают: 0  |  0 KB/s  ] 
 Полного источника не было 4 месяца 29 дней 
Сообщения
 Добавлено: 2011-12-08 19:50
Руководитель релиз-группы
Аватара пользователя
Стаж: 8 лет 6 месяцев
Возраст: 25
Сообщений: 7578
Спасибок: 51910
Лайков: 14
Ковбои против пришельцев
Cowboys & Aliens

Изображение

Год выпуска: 2011
Страна: США, Индия
Слоган: «First contact. Last stand.»

Жанр: фантастика, боевик, триллер, вестерн
Продолжительность: 01:58:13
Перевод: Профессиональный (полное дублирование)

Режиссер: Джон Фавро
Сценарий: Марк Фергус, Хоук Остби, Роберто Орси, Алекс Куртцман, Дэймон Линделоф
Продюсер: Алекс Куртцман, Дэймон Линделоф, Роберто Орси, Скотт Митчел Розенберг, Джон Френсис Додж
Оператор: Мэттью Либатик
Композитор: Гарри Грегсон-Уильямс

В ролях: Дэниэл Крэйг, Харрисон Форд, Оливия Уайлд, Сэм Рокуэлл, Адам Бич, Пол Дано, Ноа Рингер, Эбигейл Спенсер, Бак Тейлор, Мэттью Тейлор, Купер Тейлор, Клэнси Браун
Дублёры: Владимир Зайцев, Владимир Антоник, Наталья Грачева, Василий Дахненко, Александр Дзюба, Антон Эльдаров, Ефим Клиновский, Валентина Абрамова, Леонид Белозорович, Александр Груздев
Описание: 1873, Абсолюшен, штат Аризона. В эту глухую американскую провинцию прибывает потерявший память незнакомец. Единственный намек на его прошлое - это странные кандалы на одном из его запястий. Странник быстро узнает, что жители городка не рады незнакомцам, да и вообще они выходят на улицы лишь по приказу полковника Долархайда, правящего в этой местности железной рукой.
Вскоре странное поведение жителей объясняется. Периодически с неба обрушиваются ужасающие создания, которые забирают все, что им заблагорассудится и держат город в паническом страхе. Главный герой, постепенно вспоминающий о том, что с ним произошло, становится единственной надеждой города на спасение.


Качество: BDRip 720p
Формат: MKV
Видео: 1280x534 (2.35:1), H.264, 23.976 fps, 5230 kb/s, 0.319 bit/pixel
Аудио: Russian: AC3, 640 kb/s (6 ch) 48 kHz / English: DTS, 1510 kb/s (6 ch) 48 kHz
Субтитры: Russian [Forced], Russian [Full], Englis
"Знаете ли Вы, что..."
  • Дэниэл Крэйг похудел на 20 фунтов ради этой роли в фильме.
  • Роберт-Дауни мл. отказался от главной роли в фильме.
Свернуть
"MediaInfo"
General

Complete name                            : Kovboi.protiv.prisheltzev.2011.D.BDRip.720p.mkv
Format                                   : Matroska
Format version                           : Version 2
File size                                : 6.22 GiB
Duration                                 : 1h 58mn
Overall bit rate                         : 7 530 Kbps
Encoded date                             : UTC 2011-12-08 07:29:18
Writing application                      : mkvmerge v3.4.0 ('Rapunzel') built on May 15 2010 09:38:20
Writing library                          : libebml v0.8.0 + libmatroska v0.9.0

Video
ID                                       : 1
Format                                   : AVC
Format/Info                              : Advanced Video Codec
Format profile                           : High@L4.1
Format settings, CABAC                   : Yes
Format settings, ReFrames                : 12 frames
Codec ID                                 : V_MPEG4/ISO/AVC
Duration                                 : 1h 58mn
Bit rate                                 : 5 230 Kbps
Width                                    : 1 280 pixels
Height                                   : 534 pixels
Display aspect ratio                     : 2.40:1
Frame rate                               : 23.976 fps
Color space                              : YUV
Chroma subsampling                       : 4:2:0
Bit depth                                : 8 bits
Scan type                                : Progressive
Bits/(Pixel*Frame)                       : 0.319
Stream size                              : 4.32 GiB (69%)
Writing library                          : x264 core 119 r2106 07efeb4
Encoding settings                        : cabac=1 / ref=12 / deblock=1:-3:-3 / analyse=0x3:0x133 / me=umh / subme=10 / psy=1 / psy_rd=1.05:0.00 / mixed_ref=1 / me_range=32 / chroma_me=1 / trellis=2 / 8x8dct=1 / cqm=0 / deadzone=21,11 / fast_pskip=0 / chroma_qp_offset=-2 / threads=12 / sliced_threads=0 / nr=0 / decimate=0 / interlaced=0 / bluray_compat=0 / constrained_intra=0 / bframes=8 / b_pyramid=2 / b_adapt=2 / b_bias=0 / direct=3 / weightb=1 / open_gop=0 / weightp=2 / keyint=250 / keyint_min=23 / scenecut=40 / intra_refresh=0 / rc=crf / mbtree=0 / crf=16.0 / qcomp=0.60 / qpmin=0 / qpmax=69 / qpstep=4 / ip_ratio=1.40 / pb_ratio=1.30 / aq=1:0.80
Language                                 : English

Audio #1
ID                                       : 2
Format                                   : AC-3
Format/Info                              : Audio Coding 3
Mode extension                           : CM (complete main)
Codec ID                                 : A_AC3
Duration                                 : 1h 58mn
Bit rate mode                            : Constant
Bit rate                                 : 640 Kbps
Channel(s)                               : 6 channels
Channel positions                        : Front: L C R, Side: L R, LFE
Sampling rate                            : 48.0 KHz
Bit depth                                : 16 bits
Compression mode                         : Lossy
Stream size                              : 541 MiB (8%)
Title                                    : Russian @ DD 5.1 @ 640 kbps
Language                                 : Russian

Audio #2
ID                                       : 3
Format                                   : DTS
Format/Info                              : Digital Theater Systems
Codec ID                                 : A_DTS
Duration                                 : 1h 58mn
Bit rate mode                            : Constant
Bit rate                                 : 1 510 Kbps
Channel(s)                               : 6 channels
Channel positions                        : Front: L C R, Side: L R, LFE
Sampling rate                            : 48.0 KHz
Bit depth                                : 24 bits
Compression mode                         : Lossy
Delay relative to video                  : 11ms
Stream size                              : 1.25 GiB (20%)
Title                                    : English @ DTS 5.1 @ 1510 kbps
Language                                 : English

Text #1
ID                                       : 4
Format                                   : UTF-8
Codec ID                                 : S_TEXT/UTF8
Codec ID/Info                            : UTF-8 Plain Text
Title                                    : Russian (Forced)
Language                                 : Russian

Text #2
ID                                       : 5
Format                                   : UTF-8
Codec ID                                 : S_TEXT/UTF8
Codec ID/Info                            : UTF-8 Plain Text
Title                                    : Russian
Language                                 : Russian

Text #3
ID                                       : 6
Format                                   : UTF-8
Codec ID                                 : S_TEXT/UTF8
Codec ID/Info                            : UTF-8 Plain Text
Title                                    : English
Language                                 : English
Свернуть
"Скриншоты"

Изображение
Изображение
Изображение
Свернуть
Не в сети
Профиль  
Начать новую темуОтветить на тему  [ 1 сообщение ] 
Вы не можете начинать темы
Вы не можете отвечать на сообщения
Вы не можете редактировать свои сообщения
Вы не можете удалять свои сообщения