Правила форума

  • В этом разделе создание новых тем Запрещено.
  • Для создания новых тем пользуйтесь Корневым разделом DVD и HD фильмы.
Начать новую темуОтветить на тему  [ 1 сообщение ] 
Торрент файл
Размер: 8.5 GB • Зарегистрирован: 4 года 2 месяца • Статус: T Временный релиз
Скачан: 39 раз • Желающих скачать: 0 • Поблагодарили: 4 раза
 Раздают: 0  |  0 KB/s  ]   Качают: 0  |  0 KB/s  ] 
 Полного источника не было 3 года 2 месяца 
Сообщения
 Добавлено: 2012-09-25 12:26
Модератор релиз-группы
Аватара пользователя
Стаж: 9 лет 1 месяц
Возраст: 97
Сообщений: 11660
Спасибок: 6534
Лайков: 269
Козы / Goats
«You can't choose your family...or can you?»

Изображение


Год выпуска: 2012
Страна: США
Жанр: Комедия
Продолжительность: 01:34:06
Перевод: Любительский (многоголосый закадровый) [Alternative Production]

Режиссёр: Кристофер Нил

В ролях: Дэвид Духовны, Вера Фармига, Грэхэм Филлипс, Кери Рассел, Джастин Кирк, Тай Бурелл, Дакота Джонсон, Джастин Вилон, Ивэн Боймел, Тимоти Гиббс

Описание: История о четырнадцатилетнем мальчике Эллисе и Козопасе — сорокалетнем слабоумном, который живет рядом с Эллисом и его матерью и выполняет всю грязную работу в обмен на еду и крышу над головой для него самого и его коз. Свободное от работы время Козопас посвящает выращиванию и употреблению марихуаны. Эллис — его единственный друг. С Козопасом мальчик готов делить даже холодные ночные переходы через пустыню в поисках новых пастбищ. Идиллия заканчивается, когда Эллису настает время отправляться на учебу на другой конец страны, в школу, за которую платит его отсутствующий отец.
Изображение
Качество: BDRip
Формат: mkv
Видео кодек: mpeg-4
Аудио кодек:
Видео: 12,5 Мбит/сек, 1920 x 800 (2.400) at 23.976 fps, avc : 0.339 Bits/Pixel
Аудио : 448 Кбит/сек, , 48,0 КГц, 16 bits, 6 ch, ac3 [Русский, MVO]
скриншоты
Изображение

Изображение

Изображение
Свернуть
Mi
Format : Matroska
Format version : Version 2
File size : 9.50 GiB
Duration : 1h 34mn
Overall bit rate : 14.4 Mbps
Movie name : Kozy.2012.BDRip.1080p
Encoded date : UTC 2012-09-22 20:15:04
Writing application : mkvmerge v2.9.9 ('Tutu') built on Nov 25 2009 21:13:32
Writing library : libebml v0.7.9 + libmatroska v0.8.1

Video
ID : 1
Format : AVC
Format/Info : Advanced Video Codec
Format profile : High@L4.1
Format settings, CABAC : Yes
Format settings, ReFrames : 5 frames
Codec ID : V_MPEG4/ISO/AVC
Duration : 1h 34mn
Bit rate : 12.5 Mbps
Width : 1 920 pixels
Height : 800 pixels
Display aspect ratio : 2.40:1
Frame rate : 23.976 fps
Color space : YUV
Chroma subsampling : 4:2:0
Bit depth : 8 bits
Scan type : Progressive
Bits/(Pixel*Frame) : 0.339
Stream size : 8.02 GiB (84%)
Title : rutracker.org
Writing library : x264 core 116 r2074 2641b9e
Encoding settings : cabac=1 / ref=5 / deblock=1:-3:-3 / analyse=0x3:0x113 / me=umh / subme=11 / psy=1 / psy_rd=1.00:0.00 / mixed_ref=1 / me_range=48 / chroma_me=1 / trellis=2 / 8x8dct=1 / cqm=0 / deadzone=21,11 / fast_pskip=1 / chroma_qp_offset=-2 / threads=12 / sliced_threads=0 / nr=0 / decimate=1 / interlaced=0 / bluray_compat=0 / constrained_intra=0 / bframes=9 / b_pyramid=2 / b_adapt=1 / b_bias=0 / direct=3 / weightb=1 / open_gop=0 / weightp=2 / keyint=250 / keyint_min=20 / scenecut=40 / intra_refresh=0 / rc_lookahead=40 / rc=2pass / mbtree=1 / bitrate=12500 / ratetol=1.0 / qcomp=0.70 / qpmin=10 / qpmax=51 / qpstep=4 / cplxblur=20.0 / qblur=0.5 / ip_ratio=1.40 / aq=1:1.00
Language : English
Default : No
Forced : No

Audio #1
ID : 2
Format : AC-3
Format/Info : Audio Coding 3
Mode extension : CM (complete main)
Format settings, Endianness : Big
Codec ID : A_AC3
Duration : 1h 34mn
Bit rate mode : Constant
Bit rate : 448 Kbps
Channel(s) : 6 channels
Channel positions : Front: L C R, Side: L R, LFE
Sampling rate : 48.0 KHz
Bit depth : 16 bits
Compression mode : Lossy
Stream size : 302 MiB (3%)
Title : AC3.448.Kbps.Russian (Alternative Production)
Language : Russian
Default : Yes
Forced : No
Свернуть
_________________
Изображение
Не в сети
Профиль  
Начать новую темуОтветить на тему  [ 1 сообщение ] 
Вы не можете начинать темы
Вы не можете отвечать на сообщения
Вы не можете редактировать свои сообщения
Вы не можете удалять свои сообщения