Правила форума

  • В этом разделе создание новых тем Запрещено.
  • Для создания новых тем пользуйтесь Корневым разделом DVD и HD фильмы.
Начать новую темуОтветить на тему  [ Сообщений: 2 ] 
Торрент файл
Размер: 3.12 GB • Зарегистрирован: 2 года 9 месяцев • Статус: T Временный релиз
Скачан: 27 раз • Желающих скачать: 0 • Поблагодарили: 16 раз
 Раздают: 0  |  0 KB/s  ]   Качают: 0  |  0 KB/s  ] 
 Полного источника не было 8 дней 
Сообщения
 Добавлено: 2014-02-25 12:12
Модератор
Аватара пользователя
Стаж: 8 лет 2 месяца
Возраст: 30
Сообщений: 3202
Спасибок: 2960
Лайков: 206
Козлиный остров / Козы/Standing Up / Goat Island

Изображение


Название: Козлиный остров / Козы
Оригинальное название: Standing Up / Goat Island
Выпущено: США
Продолжительность: 01:33:12
Озвучивание: Профессиональное (многоголосое) [online movies] /Любительское (одноголосое) [humbert sound studio]
Жанр: драма, семейный, приключение
Год выхода: 2013
Режиссер: Ди Джей Карузо
В ролях: Чандлер Кентербери, Анналиса Бассо, Рада Митчелл, Вэл Килмер, Кейт Флиппен, Уильям Дж. Харрисон, Джаред Кеммерлинг, Кейт Маберли, Блейк Гриффин, Чарльз Кэррол

О фильме:
Хави и Сьюзи во время летних каникул приехали в лагерь «Высокая сосна». Все дети любят отдыхать в подобных местах, в которых они находят новых друзей и весело проводят время. Но бывает так, что не всем детям весело, особенно когда они становятся объектом насмешек и розыгрышей. Так и наши герои оказались втянуты в очередной розыгрыш сверстников. По давней традиции их отправляют на небольшой остров, который находится недалеко от лагеря. Там их раздевают до гола и оставляют на целую ночь. Когда на утро за ними вернулись, то Хави и Сьюзи на острове уже не было. Не желая после такого позора возвращаться в лагерь, двое подростков решили сбежать... Впереди их ждет трехдневная одиссея, полная неожиданных приключений и открытий.

Дата мировой премьеры: 22 февраля 2013
Рейтинг MPAA: PG (рекомендуется присутствие родителей)

Формат: MKV
Качество: WEB-DL 720p [SUPERBAD]
Видео: 3935 kb/s, 1280x690
Аудио: Russian [online movies] / [humbert sound studio]: AC3, 192 kb/s (2 ch) / English: AC3, 384 kb/s (6 ch)
Субтитры: Russian [kitmur], English
Дополнительно: Сохранены оригинальные чаптеры как на Blu-ray

Изображение
Изображение
Изображение
MediaInfo
Общее
Формат : Matroska
Версия формата : Version 4 / Version 2
Размер файла : 3,12 Гбайт
Продолжительность : 1 ч. 33 м.
Общий поток : 4798 Кбит/сек
Дата кодирования : UTC 2014-02-24 23:46:46
Программа кодирования : mkvmerge v6.7.0 ('Back to the Ground') 64bit built on Jan 8 2014 15:10:52
Библиотека кодирования : libebml v1.3.0 + libmatroska v1.4.1

Видео
Идентификатор : 1
Формат : AVC
Формат/Информация : Advanced Video Codec
Профиль формата : Main@L3.1
Параметр CABAC формата : Нет
Параметр ReFrames формата : 2 кадра
Идентификатор кодека : V_MPEG4/ISO/AVC
Продолжительность : 1 ч. 33 м.
Битрейт : 3935 Кбит/сек
Ширина : 1280 пикселей
Высота : 530 пикселей
Соотношение сторон : 2,40:1
Режим частоты кадров : Постоянный
Частота кадров : 23,976 кадра/сек
Цветовое пространство : YUV
Субдискретизация насыщенности : 4:2:0
Битовая глубина : 8 бит
Тип развёртки : Прогрессивная
Бит/(Пиксели*Кадры) : 0.242
Размер потока : 2,56 Гбайт (82%)
Язык : English
Default : Да
Forced : Нет
Основные цвета : BT.709
Характеристики трансфера : BT.709
Коэффициенты матрицы : BT.709

Аудио #1
Идентификатор : 2
Формат : AC-3
Формат/Информация : Audio Coding 3
Расширение режима : CM (complete main)
Параметр Endianness формата : Big
Идентификатор кодека : A_AC3
Продолжительность : 1 ч. 33 м.
Вид битрейта : Постоянный
Битрейт : 192 Кбит/сек
Каналы : 2 канала
Расположение каналов : Front: L R
Частота : 48,0 КГц
Битовая глубина : 16 бит
Метод сжатия : С потерями
Размер потока : 128 Мбайт (4%)
Заголовок : online movies
Язык : Russian
Default : Да
Forced : Да

Аудио #2
Идентификатор : 3
Формат : AC-3
Формат/Информация : Audio Coding 3
Расширение режима : CM (complete main)
Параметр Endianness формата : Big
Идентификатор кодека : A_AC3
Продолжительность : 1 ч. 33 м.
Вид битрейта : Постоянный
Битрейт : 192 Кбит/сек
Каналы : 2 канала
Расположение каналов : Front: L R
Частота : 48,0 КГц
Битовая глубина : 16 бит
Метод сжатия : С потерями
Размер потока : 128 Мбайт (4%)
Заголовок : humbert sound studio
Язык : Russian
Default : Нет
Forced : Нет

Аудио #3
Идентификатор : 4
Формат : AC-3
Формат/Информация : Audio Coding 3
Расширение режима : CM (complete main)
Параметр Endianness формата : Big
Идентификатор кодека : A_AC3
Продолжительность : 1 ч. 33 м.
Вид битрейта : Постоянный
Битрейт : 384 Кбит/сек
Каналы : 6 каналов
Расположение каналов : Front: L C R, Side: L R, LFE
Частота : 48,0 КГц
Битовая глубина : 16 бит
Метод сжатия : С потерями
Размер потока : 256 Мбайт (8%)
Язык : English
Default : Нет
Forced : Нет

Текст #1
Идентификатор : 5
Формат : UTF-8
Идентификатор кодека : S_TEXT/UTF8
Идентификатор кодека/Информация : UTF-8 Plain Text
Заголовок : kitmur
Язык : Russian
Default : Нет
Forced : Нет

Текст #2
Идентификатор : 6
Формат : UTF-8
Идентификатор кодека : S_TEXT/UTF8
Идентификатор кодека/Информация : UTF-8 Plain Text
Заголовок : English
Язык : English
Default : Нет
Forced : Нет

Меню
00:00:00.000 : en:1
00:11:26.000 : en:2
00:19:26.000 : en:3
00:27:43.000 : en:4
00:36:29.000 : en:5
00:44:03.000 : en:6
00:49:40.000 : en:7
00:55:50.000 : en:8
01:01:40.000 : en:9
01:09:16.000 : en:10
01:16:06.000 : en:11
01:23:36.000 : en:12
Свернуть
Скриншоты
Изображение
Изображение
Изображение
Изображение
Изображение
Изображение
Свернуть

Изображение
Изображение
_________________

ИзображениеПравила Создание релизов от А до Я
Не в сети
Профиль  
 Добавлено: 2014-02-25 23:33 (спустя 11 часов)
Аватара пользователя
Стаж: 6 лет 9 месяцев
Возраст: 30
Сообщений: 91
Лайков: 6
Очень неплохой фильм про дружбу,мне понравился.
Не в сети
Профиль  
Начать новую темуОтветить на тему  [ Сообщений: 2 ] 
Вы не можете начинать темы
Вы не можете отвечать на сообщения
Вы не можете редактировать свои сообщения
Вы не можете удалять свои сообщения