Правила форума

  • В этом разделе создание новых тем Запрещено.
  • Для создания новых тем пользуйтесь Корневым разделом DVD и HD фильмы.
Начать новую темуОтветить на тему  [ Сообщений: 7 ] 
Торрент файл
Размер: 4.7 GB • Зарегистрирован: 6 лет 6 месяцев • Статус: Проверено
Скачан: 184 раза • Желающих скачать: 0 • Поблагодарили: 28 раз
 Раздают: 0  |  0 KB/s  ]   Качают: 0  |  0 KB/s  ] 
 Полного источника не было 3 года 2 месяца 
Сообщения
 Добавлено: 2010-06-03 13:43
Аватара пользователя
Стаж: 8 лет 2 месяца
Возраст: 23
Сообщений: 1671
Спасибок: 320
Лайков: 2
Изображение | OST Красавчик (2007)
Красавчик / Keinohrhasen

Изображение

Год выпуска: 2007
Страна: Германия Изображение
Слоган: «Может встретимся?»
Жанр: комедия, мелодрама
Продолжительность: 01:56:03
Перевод: Профессиональный (полное дублирование)
Русские Субтитры:нет

Режиссер: Тиль Швайгер
Сценарий: Аника Деккер, Тиль Швайгер
Продюсер: Стефан Гертнер, Марк Попп, Тиль Швайгер
Оператор: Кристоф Валь
Композитор: Штефан Ханзен, Дирк Райхардт, Мирко Шаффер

В ролях: Тиль Швайгер, Нора Тширнер, Маттиас Швайгхефер, Алвара Хёфельс, Юрген Фогель, Рик Каваниан , Армин Рохд , Вольфганг Штумпф, Барбара Рудник, Кристиан Трамиц .
Описание:
Журналист Людо, схлопотавший восемь месяцев тюрьмы, освобожден на испытательный срок при условии, что он обязательно пройдет курс трудотерапии. Ему предстоит отработать триста часов в местном детском саду. Как ухаживать за 8-летними оболтусами, Людо не очень представляет, но в группе работает его старая знакомая — еще в школе он изводил ее своими выходками.

И вот теперь та сопливая девочка выросла, превратившись практически в супермодель. А что делать с моделями, Людо в курсе. Но у девушки свои планы на старого знакомого…
Изображение

Изображение
Качество: BDRip 720p
Формат: MKV
Видео кодек: H.264
Аудио кодек: AC3
Видео: 1280x544, x264, 23.976 fps, ~ 3835 kbps
Аудио: Русский DD 5.1 - 448 kb/s; Немецкий DTS 5.1 - 1536 kb/s
Знаете ли Вы, что...
  • Все четверо детей Тиля Швайгера появляются на экране в небольших ролях. Двенадцатилетний сын Валентин Флориан Швайгер играет юного Людо, десятилетняя Луна Мари — юную Анну, девятилетняя *Лили Камилла — девочку с кепкой и младшая дочь, пятилетняя Эмма Тайгер — Чейенн Блю.
  • Первоначально в Германии фильм получил мягкий рейтинг 6 (не рекомендуется детям до 6 лет), однако, многочисленные протесты родителей, пришедших на сеансы с маленькими детьми, поддержанные видными общественными и политическими деятелями, вынудили пересмотр этого решения. В результате с 1 февраля 2008 года, после почти полутора месяцев проката, фильму был присвоен рейтинг 12 (дети до 12 лет допускаются только в сопровождении родителей).
  • Сцены с участием Юргена Фогеля и Норы Тширнер на красной дорожке во время церемонии German Film Awards были сняты на реальной церемонии вручения этой самой престижной награды немецкого кинематографа, состоявшейся 4 мая 2007 года в Берлине.
  • Съёмки фильма проходили с 10 марта по 23 мая 2007 года в Берлине.
  • Карьера режиссера и исполнителя главной роли Тиля Швайгера начиналась с озвучивания порнофильмов. В одном из эпизодов «Красавчика» главный герой смотрит и синхронно повторяет слова вслед за порно, в реальности озвученном самим Тилем в начале карьеры.
Свернуть
MediaInfo
General
Complete name                    : D:\Закачки\Krasavchik.BDRip.720p.x264.MIF.mkv
Format                           : Matroska
File size                        : 4.70 GiB
Duration                         : 1h 56mn
Overall bit rate                 : 5 796 Kbps
Encoded date                     : UTC 2008-09-02 15:05:54
Writing application              : mkvmerge v2.2.0 ('Turn It On Again') built on Mar  4 2008 12:58:26
Writing library                  : libebml v0.7.7 + libmatroska v0.8.1

Video
ID                               : 1
Format                           : AVC
Format/Info                      : Advanced Video Codec
Format profile                   : High@L4.1
Format settings, CABAC           : Yes
Format settings, ReFrames        : 5 frames
Muxing mode                      : Container profile=Unknown@4.1
Codec ID                         : V_MPEG4/ISO/AVC
Duration                         : 1h 55mn
Bit rate                         : 3 723 Kbps
Nominal bit rate                 : 3 835 Kbps
Width                            : 1 280 pixels
Height                           : 544 pixels
Display aspect ratio             : 2.35:1
Frame rate                       : 23.976 fps
Resolution                       : 24 bits
Colorimetry                      : 4:2:0
Scan type                        : Progressive
Bits/(Pixel*Frame)               : 0.223
Stream size                      : 3.01 GiB (64%)
Writing library                  : x264 core 61 r949M 60c4f7e
Encoding settings                : cabac=1 / ref=5 / deblock=1:-2:-1 / analyse=0x3:0x113 / me=umh / subme=6 / psy_rd=1.0:1.0 / brdo=1 / mixed_ref=1 / me_range=16 / chroma_me=1 / trellis=1 / 8x8dct=1 / cqm=0 / deadzone=21,11 / chroma_qp_offset=-4 / threads=4 / nr=0 / decimate=0 / mbaff=0 / bframes=16 / b_pyramid=1 / b_adapt=1 / b_bias=0 / direct=3 / wpredb=1 / bime=1 / keyint=250 / keyint_min=25 / scenecut=40(pre) / rc=2pass / bitrate=3835 / ratetol=1.0 / rceq='blurCplx^(1-qComp)' / qcomp=1.00 / qpmin=10 / qpmax=51 / qpstep=4 / cplxblur=20.0 / qblur=0.5 / ip_ratio=1.40 / pb_ratio=1.30 / aq=2:1.00

Audio #1
ID                               : 2
Format                           : AC-3
Format/Info                      : Audio Coding 3
Codec ID                         : A_AC3
Duration                         : 1h 56mn
Bit rate mode                    : Constant
Bit rate                         : 448 Kbps
Channel(s)                       : 6 channels
Channel positions                : Front: L C R, Surround: L R, LFE
Sampling rate                    : 48.0 KHz
Stream size                      : 372 MiB (8%)
Title                            : DD 5.1 by MIF
Language                         : Russian

Audio #2
ID                               : 3
Format                           : DTS
Format/Info                      : Digital Theater Systems
Codec ID                         : A_DTS
Duration                         : 1h 56mn
Bit rate mode                    : Constant
Bit rate                         : 1 510 Kbps
Channel(s)                       : 6 channels
Channel positions                : Front: L C R, Surround: L R, LFE
Sampling rate                    : 48.0 KHz
Resolution                       : 16 bits
Stream size                      : 1.22 GiB (26%)
Title                            : DTS 5.1
Language                         : German

Свернуть
Скриншоты
ИзображениеИзображениеИзображениеИзображениеИзображение
Свернуть

_________________
sumsumsumsum sumsum
Не в сети
Профиль  
 Добавлено: 2010-06-20 16:03 (спустя 17 дней)
Аватара пользователя
Стаж: 8 лет
Сообщений: 18
Спасибок: 6
странный цветовой оттенок в фильме...
кроме красновато-коричневого другие цвета вообще в нем присутствуют???
Не в сети
Профиль  
 Добавлено: 2010-06-22 23:22 (спустя 2 дня 7 часов)
Аватара пользователя
Стаж: 7 лет 9 месяцев
Возраст: 24
Сообщений: 36
встаньте на раздачу, пожалуйста)
Не в сети
Профиль  
 Добавлено: 2010-06-25 23:47 (спустя 3 дня)
Аватара пользователя
Стаж: 8 лет 2 месяца
Возраст: 23
Сообщений: 1671
Спасибок: 320
Лайков: 2

slavikxxx:

странный цветовой оттенок в фильме...
все впорядке...
_________________
sumsumsumsum sumsum
Не в сети
Профиль  
 Добавлено: 2010-06-29 18:50 (спустя 3 дня)
Аватара пользователя
Стаж: 8 лет
Сообщений: 18
Спасибок: 6

Sum42:

slavikxxx:

странный цветовой оттенок в фильме...
все впорядке...
Это я посмотрев скрины сделат такой вывод...
ну а теперь уже посмотрев сам фильм, могу согласиться, что действительно все ОК! :par_don:
Не в сети
Профиль  
 Добавлено: 2010-07-25 22:58 (спустя 26 дней)
Аватара пользователя
Стаж: 8 лет 1 месяц
Сообщений: 48
Спасибок: 5
Раздайте пожалуйста
Не в сети
Профиль  
 Добавлено: 2010-07-27 22:10 (спустя 1 день 23 часа)
Аватара пользователя
Стаж: 8 лет 2 месяца
Возраст: 23
Сообщений: 1671
Спасибок: 320
Лайков: 2

Pozdnyak:

Раздайте пожалуйста
все активно раздается
_________________
sumsumsumsum sumsum
Не в сети
Профиль  
Начать новую темуОтветить на тему  [ Сообщений: 7 ] 
Вы не можете начинать темы
Вы не можете отвечать на сообщения
Вы не можете редактировать свои сообщения
Вы не можете удалять свои сообщения