Правила форума

  • В этом разделе создание новых тем Запрещено.
  • Для создания новых тем пользуйтесь Корневым разделом DVD и HD фильмы.
Начать новую темуОтветить на тему  [ Сообщений: 5 ] 
Торрент файл
Размер: 5.72 GB • Зарегистрирован: 2 года 5 месяцев • Статус: T Временный релиз
Скачан: 2254 раза • Желающих скачать: 0 • Поблагодарили: 128 раз
 Раздают: 3  |  0 KB/s  ]   Качают: 0  |  0 KB/s  ] 
Сообщения
 Добавлено: 2014-06-25 22:39
DVD Release Group
Аватара пользователя
Стаж: 7 лет 1 месяц
Сообщений: 3544
Спасибок: 246885
Лайков: 1018
Красавица и чудовище

La belle et la bete


Изображение


Год выпуска: 2014
Страна: Франция, Германия
Жанр: Фэнтези, мелодрама
Продолжительность: 01:53:04
Перевод: Профессиональный (полное дублирование)
Режиссер: Кристоф Ганс
В ролях: Леа Сейду, Венсан Кассель, Андре Дюссолье, Эдуардо Норьега, Мириам Шарленс, Одри Лами, Сара Жиродо, Жонатан Демурже, Николя Гоб, Лука Мельява
Описание: Дочь купца, смелая и отважная Белль, отправляется в замок чудовища, чтобы спасти жизнь своего отца. Очутившись в замке, Белль попадает в потусторонний мир волшебства, фантастических приключений и загадочной меланхолии.
Оказывается, что наводившее ужас на всю округу чудовище очень несчастно, а в его груди бьется доброе сердце. Белль все больше проникается симпатией к своему ужасному господину.
Благодаря пылкому сердцу и храбрости, она преодолевает все опасности, чтобы снять зловещие чары с чудовища. Но это произойдет, только если его сможет полюбить прекрасная девушка.
Изображение
Качество: BDRip 720p
Формат: MKV
Видео кодек: H.264
Аудио кодек: AC3, DTS
Видео: 1280x536 24fps 5407kbps
Аудио:
Audio Rus: 48kHz 2ch 320kbps
Audio Fra: 48kHz 6ch 1510kbps
"MediaInfo"
Формат : Matroska
Версия формата : Version 4 / Version 2
Размер файла : 5,72 Гбайт
Продолжительность : 1 ч. 53 м.
Общий поток : 7237 Кбит/сек
Дата кодирования : UTC 2014-06-25 14:07:12
Программа кодирования : mkvmerge v6.1.0 ('Old Devil') built on Mar 4 2013 09:10:42
Библиотека кодирования : libebml v1.3.0 + libmatroska v1.4.0

Видео
Идентификатор : 1
Формат : AVC
Формат/Информация : Advanced Video Codec
Профиль формата : High@L4.1
Параметр CABAC формата : Да
Параметр ReFrames формата : 5 кадров
Идентификатор кодека : V_MPEG4/ISO/AVC
Битрейт : 5407 Кбит/сек
Ширина : 1280 пикселей
Высота : 536 пикселей
Соотношение сторон : 2,40:1
Режим частоты кадров : Переменный
Частота кадров в оригинале : 24,000 кадра/сек
Цветовое пространство : YUV
Субдискретизация насыщенности : 4:2:0
Битовая глубина : 8 бит
Тип развёртки : Прогрессивная
Бит/(Пиксели*Кадры) : 0.328
Библиотека кодирования : x264 core 142 r2431 ac76440
Настройки программы : cabac=1 / ref=5 / deblock=1:0:0 / analyse=0x3:0x113 / me=umh / subme=8 / psy=1 / psy_rd=1.00:0.00 / mixed_ref=1 / me_range=16 / chroma_me=1 / trellis=1 / 8x8dct=1 / cqm=0 / deadzone=21,11 / fast_pskip=1 / chroma_qp_offset=-2 / threads=12 / lookahead_threads=2 / sliced_threads=0 / nr=0 / decimate=1 / interlaced=0 / bluray_compat=0 / constrained_intra=0 / bframes=3 / b_pyramid=2 / b_adapt=2 / b_bias=0 / direct=3 / weightb=1 / open_gop=0 / weightp=2 / keyint=240 / keyint_min=24 / scenecut=40 / intra_refresh=0 / rc_lookahead=50 / rc=2pass / mbtree=1 / bitrate=5407 / ratetol=1.0 / qcomp=0.60 / qpmin=0 / qpmax=69 / qpstep=4 / cplxblur=20.0 / qblur=0.5 / ip_ratio=1.40 / aq=1:1.00
Язык : English
Default : Да
Forced : Нет

Аудио #1
Идентификатор : 2
Формат : AC-3
Формат/Информация : Audio Coding 3
Расширение режима : CM (complete main)
Параметр Endianness формата : Big
Идентификатор кодека : A_AC3
Продолжительность : 1 ч. 53 м.
Вид битрейта : Постоянный
Битрейт : 320 Кбит/сек
Каналы : 2 канала
Расположение каналов : Front: L R
Частота : 48,0 КГц
Битовая глубина : 16 бит
Метод сжатия : С потерями
Размер потока : 259 Мбайт (4%)
Язык : Russian
Default : Да
Forced : Нет

Аудио #2
Идентификатор : 3
Формат : DTS
Формат/Информация : Digital Theater Systems
Режим : 16
Параметр Endianness формата : Big
Идентификатор кодека : A_DTS
Продолжительность : 1 ч. 53 м.
Вид битрейта : Постоянный
Битрейт : 1509 Кбит/сек
Каналы : 6 каналов
Расположение каналов : Front: L C R, Side: L R, LFE
Частота : 48,0 КГц
Битовая глубина : 24 бит
Метод сжатия : С потерями
Размер потока : 1,19 Гбайт (21%)
Язык : French
Default : Нет
Forced : Нет

Меню
00:00:00.000 : en:00:00:00.000
00:03:19.083 : en:00:03:19.083
00:06:48.417 : en:00:06:48.417
00:11:21.375 : en:00:11:21.375
00:17:08.583 : en:00:17:08.583
00:28:11.333 : en:00:28:11.333
00:31:36.125 : en:00:31:36.125
00:37:27.458 : en:00:37:27.458
00:44:22.750 : en:00:44:22.750
00:51:00.500 : en:00:51:00.500
00:53:44.417 : en:00:53:44.417
01:04:05.167 : en:01:04:05.167
01:10:16.000 : en:01:10:16.000
01:16:07.708 : en:01:16:07.708
01:22:10.500 : en:01:22:10.500
01:26:00.125 : en:01:26:00.125
01:28:07.667 : en:01:28:07.667
01:33:15.375 : en:01:33:15.375
01:41:54.792 : en:01:41:54.792
01:45:26.833 : en:01:45:26.833
Свернуть

"Скриншоты"
Изображение
Изображение
Изображение
Изображение
Изображение
Изображение
Свернуть
Не в сети
Профиль  
 Добавлено: 2014-06-25 22:58 (спустя 18 минут)
Стаж: 8 лет 10 месяцев
Сообщений: 38
Лайков: 1
1080 будет сегодня?* и Когда лицензия если не секрет? на Кинопоиске не написано (
Не в сети
Профиль  
 Добавлено: 2014-07-06 20:18 (спустя 10 дней)
Аватара пользователя
Стаж: 6 лет 1 месяц
Возраст: 30
Сообщений: 14
да, одним словом французы)) лично по мне намного душевнее диснеевский мульт
_________________
bezlikii
Не в сети
Профиль  
 Добавлено: 2014-07-28 21:03 (спустя 22 дня)
Стаж: 3 года 10 месяцев
Сообщений: 13
Лайков: 1
раздачки побольше) :bra_vo: :bra_vo: :bra_vo:
Не в сети
Профиль  
 Добавлено: 2014-12-25 10:25 (спустя 4 месяца 27 дней)
Аватара пользователя
Стаж: 8 лет 3 месяца
Сообщений: 37
Лайков: 3
Cкрины класс!!!! :co_ol: Самые интересные моменты.
Не в сети
Профиль  
Начать новую темуОтветить на тему  [ Сообщений: 5 ] 
Вы не можете начинать темы
Вы не можете отвечать на сообщения
Вы не можете редактировать свои сообщения
Вы не можете удалять свои сообщения