Правила форума

  • В этом разделе создание новых тем Запрещено.
  • Для создания новых тем пользуйтесь Корневым разделом DVD и HD фильмы.
Начать новую темуОтветить на тему  [ Сообщений: 2 ] 
Торрент файл
Размер: 7.08 GB • Зарегистрирован: 5 лет 3 месяца • Статус: Проверено
Скачан: 35 раз • Желающих скачать: 0 • Поблагодарили: 7 раз
 Раздают: 0  |  0 KB/s  ]   Качают: 0  |  0 KB/s  ] 
 Полного источника не было 1 год 1 месяц 
Сообщения
 Добавлено: 2011-08-13 13:53
Книголюб
Аватара пользователя
Стаж: 7 лет 2 месяца
Сообщений: 2823
Спасибок: 48824
Лайков: 73
Красная планета
Red Planet

Изображение

Год выпуска: 2000
Страна: США, Австралия
Слоган: «Они не нашли жизнь на Марсе. Она нашла их сама.»
Жанр: фантастика, боевик, триллер
Продолжительность: 01:46:29
Перевод: Профессиональный (дубляж)

Режиссёр: Энтони Хоффман
В ролях: Вэл Килмер, Кэрри-Энн Мосс, Саймон Бэйкер, Теренс Стэмп, Мортон Кэролайн, Босси Боб, Том Сайзмор, Бенжамин Брэтт
Описание: В 21 веке Земля вымирает, и жить на ней становится все труднее. Ученые надеются основать колонию на Марсе. Команда из шести астронавтов отправляется на планету, чтобы осмотреть планету с целью ее пригодности для жизни.

Однако после полугодового полета к цели при самой посадке, возникают проблемы. Теперь перед астронавтами стоит проблема — как улететь с этой планеты.
Рейтинг MPAA: Рейтинг PG-13 (Дети до 13 лет допускаются на фильм только с родителями)
Мировая премьера: 6 ноября 2000
Бюджет: $80 000 000
Изображение 6.408 1 609

Качество: BDRip 1080p
Формат: MKV
Видео кодек: H264
Аудио кодек: AC3 (Dolby Digital)
Видео: 1920x800 23.98fps, 9135 Кбит/с, 0.248Bits/Pixel
Аудио #1: 48000Hz, 6ch, 384 Kbps

MediaInfo
General
Unique ID : 222203152068676114782931013513295440558 (0xA72AC53AF115113398F4B250C7C82AAE)
Complete name : I:\1.08\Krasnaya.planeta.2000.BDRip.1080p.mkv
Format : Matroska
File size : 7.08 GiB
Duration : 1h 46mn
Overall bit rate : 9 525 Kbps
Movie name : Красная планета / Red Planet (2000) BDRip 1080p
Encoded date : UTC 2011-08-09 21:14:22
Writing application : mkvmerge v2.4.2 ('Oh My God') built on Jan 18 2009 17:30:28
Writing library : libebml v0.7.7 + libmatroska v0.8.1

Video
ID : 1
Format : AVC
Format/Info : Advanced Video Codec
Format profile : High@L4.1
Format settings, CABAC : Yes
Format settings, ReFrames : 5 frames
Codec ID : V_MPEG4/ISO/AVC
Duration : 1h 46mn
Bit rate : 9 135 Kbps
Width : 1 920 pixels
Height : 800 pixels
Display aspect ratio : 2.40:1
Frame rate : 23.976 fps
Color space : YUV
Chroma subsampling : 4:2:0
Bit depth : 8 bits
Scan type : Progressive
Bits/(Pixel*Frame) : 0.248
Stream size : 6.66 GiB (94%)
Writing library : x264 core 114 r1924 08d04a4
Encoding settings : cabac=1 / ref=5 / deblock=1:-3:-3 / analyse=0x3:0x113 / me=umh / subme=10 / psy=1 / psy_rd=1.00:0.05 / mixed_ref=1 / me_range=32 / chroma_me=1 / trellis=2 / 8x8dct=1 / cqm=2 / deadzone=21,11 / fast_pskip=0 / chroma_qp_offset=-2 / threads=8 / sliced_threads=0 / nr=0 / decimate=1 / interlaced=0 / constrained_intra=0 / bframes=6 / b_pyramid=2 / b_adapt=2 / b_bias=0 / direct=3 / weightb=1 / open_gop=0 / weightp=2 / keyint=250 / keyint_min=23 / scenecut=40 / intra_refresh=0 / rc_lookahead=50 / rc=2pass / mbtree=1 / bitrate=9135 / ratetol=1.0 / qcomp=0.70 / qpmin=1 / qpmax=63 / qpstep=4 / cplxblur=20.0 / qblur=0.5 / vbv_maxrate=40000 / vbv_bufsize=40000 / nal_hrd=none / ip_ratio=1.40 / aq=2:0.80
Language : English

Audio
ID : 2
Format : AC-3
Format/Info : Audio Coding 3
Mode extension : CM (complete main)
Codec ID : A_AC3
Duration : 1h 46mn
Bit rate mode : Constant
Bit rate : 384 Kbps
Channel(s) : 6 channels
Channel positions : Front: L C R, Side: L R, LFE
Sampling rate : 48.0 KHz
Bit depth : 16 bits
Compression mode : Lossy
Stream size : 292 MiB (4%)
Language : Russian

Menu
00:00:00.000 : en:00:00:00.000
00:03:37.843 : en:00:03:37.843
00:06:21.423 : en:00:06:21.423
00:08:14.119 : en:00:08:14.119
00:10:42.100 : en:00:10:42.100
00:14:51.891 : en:00:14:51.891
00:18:35.531 : en:00:18:35.531
00:23:05.134 : en:00:23:05.134
00:26:15.616 : en:00:26:15.616
00:27:44.663 : en:00:27:44.663
00:31:12.579 : en:00:31:12.579
00:35:11.818 : en:00:35:11.818
00:39:45.633 : en:00:39:45.633
00:44:43.014 : en:00:44:43.014
00:49:30.926 : en:00:49:30.926
00:51:53.319 : en:00:51:53.319
00:55:38.377 : en:00:55:38.377
00:58:19.454 : en:00:58:19.454
01:02:37.337 : en:01:02:37.337
01:06:52.175 : en:01:06:52.175
01:08:39.657 : en:01:08:39.657
01:11:26.240 : en:01:11:26.240
01:13:33.576 : en:01:13:33.576
01:16:01.056 : en:01:16:01.056
01:19:40.025 : en:01:19:40.025
01:23:35.260 : en:01:23:35.260
01:27:26.992 : en:01:27:26.992
01:30:04.649 : en:01:30:04.649
01:34:50.977 : en:01:34:50.977
01:40:46.290 : en:01:40:46.290
01:42:18.716 : en:01:42:18.716


Свернуть


Скриншоты
Изображение
Изображение
Изображение
Изображение
Изображение
Свернуть
Не в сети
Профиль  
 Добавлено: 2011-08-13 18:20 (спустя 4 часа)
Аватара пользователя
Стаж: 8 лет 3 месяца
Возраст: 43
Сообщений: 3290
Спасибок: 21012
Лайков: 3
coldun
добавляйте пожалуйста более подробные тех.данные к файлам.
Для видео - кодек, разрешение, битрейт. :)
Для каждой аудиодорожки - кодек, количество каналов, битрейт, вид перевода.
_________________
Изображение
Не в сети
Профиль  
Начать новую темуОтветить на тему  [ Сообщений: 2 ] 
Вы не можете начинать темы
Вы не можете отвечать на сообщения
Вы не можете редактировать свои сообщения
Вы не можете удалять свои сообщения