Правила форума

  • В этом разделе создание новых тем Запрещено.
  • Для создания новых тем пользуйтесь Корневым разделом DVD и HD фильмы.
Начать новую темуОтветить на тему  [ Сообщений: 4 ] 
Торрент файл
Размер: 4.63 GB • Зарегистрирован: 5 лет 6 месяцев • Статус: Проверено
Скачан: 287 раз • Желающих скачать: 0 • Поблагодарили: 37 раз
 Раздают: 0  |  0 KB/s  ]   Качают: 0  |  0 KB/s  ] 
 Полного источника не было 2 года 5 месяцев 
Сообщения
 Добавлено: 2011-05-27 17:45
Top-releaser
Аватара пользователя
Стаж: 8 лет 9 месяцев
Сообщений: 479
Спасибок: 20187
Лайков: 16
Изображение

Red Riding Hood

Изображение


Год выпуска: 2011
Страна: Изображение США, Изображение Канада; Appian Way
Слоган: «Верь легенде. Берегись оборотня.»
Жанр: Ужасы, фэнтези, триллер, детектив
Продолжительность: 01:40:24
Перевод: Профессиональный (дублированный) [Лицензия], Оригинал

Режиссёр: Кэтрин Хардвик / Catherine Hardwicke

В ролях: Аманда Сайфред, Гари Олдман, Билли Бёрк, Шайло Фернандез, Макс Айронс, Вирджиния Мэдсен, Лукас Хаас, Джули Кристи, Шона Кейн, Майкл Хоган

Описание: Валери — девочке в красном плаще — предстоит раскрыть, кто же в её родной деревушке является оборотнем. Между тем на личном фронте у Валери тоже не всё просто: мама хочет выдать её замуж за богатого кузнеца Генри, тогда как девушка влюблена в плохиша Питера, местного дровосека.

Качество: BDRip 720p R5
Формат: MKV

Видео: 1280x528, 23.976 fps, x264 ~4709 Кбит/с
Аудио 1: Dolby AC3 48000Hz 6ch (Дубляж)
Аудио 2: DTS 48000Hz 6ch (Оригинал)
Изображение

Изображение

BDInfo
General
Format : Matroska
File size : 4.63 GiB
Duration : 1h 40mn
Overall bit rate : 6 570 Kbps
Encoded date : UTC 2011-05-27 12:31:14
Writing application : mkvmerge v4.8.0 ('I Got The...') сборка от May 24 2011 03:12:58
Writing library : libebml v1.2.0 + libmatroska v1.1.0

Video
ID : 1
Format : AVC
Format/Info : Advanced Video Codec
Format profile : High@L4.1
Format settings, CABAC : Yes
Format settings, ReFrames : 5 frames
Format settings, GOP : M=4, N=32
Codec ID : V_MPEG4/ISO/AVC
Duration : 1h 40mn
Bit rate : 4 709 Kbps
Width : 1 280 pixels
Height : 528 pixels
Display aspect ratio : 2.40:1
Frame rate : 23.976 fps
Color space : YUV
Chroma subsampling : 4:2:0
Bit depth : 8 bits
Scan type : Progressive
Bits/(Pixel*Frame) : 0.291
Stream size : 3.21 GiB (69%)
Writing library : x264 core 115 r1995 c1e60b9
Encoding settings : cabac=1 / ref=5 / deblock=1:0:0 / analyse=0x3:0x133 / me=umh / subme=8 / psy=1 / psy_rd=1.00:0.00 / mixed_ref=1 / me_range=16 / chroma_me=1 / trellis=1 / 8x8dct=1 / cqm=0 / deadzone=21,11 / fast_pskip=1 / chroma_qp_offset=-2 / threads=24 / sliced_threads=0 / nr=0 / decimate=1 / interlaced=0 / bluray_compat=0 / constrained_intra=0 / bframes=3 / b_pyramid=2 / b_adapt=1 / b_bias=0 / direct=1 / weightb=1 / open_gop=0 / weightp=1 / keyint=250 / keyint_min=23 / scenecut=40 / intra_refresh=0 / rc=2pass / mbtree=0 / bitrate=4709 / ratetol=1.0 / qcomp=0.60 / qpmin=0 / qpmax=69 / qpstep=4 / cplxblur=20.0 / qblur=0.5 / ip_ratio=1.40 / pb_ratio=1.30 / aq=1:1.00

Audio #1
ID : 2
Format : AC-3
Format/Info : Audio Coding 3
Mode extension : CM (complete main)
Codec ID : A_AC3
Duration : 1h 40mn
Bit rate mode : Constant
Bit rate : 384 Kbps
Channel(s) : 6 channels
Channel positions : Front: L C R, Side: L R, LFE
Sampling rate : 48.0 KHz
Bit depth : 16 bits
Compression mode : Lossy
Stream size : 277 MiB (6%)
Language : Russian

Audio #2
ID : 3
Format : DTS
Format/Info : Digital Theater Systems
Codec ID : A_DTS
Duration : 1h 40mn
Bit rate mode : Constant
Bit rate : 1 510 Kbps
Channel(s) : 6 channels
Channel positions : Front: L C R, Side: L R, LFE
Sampling rate : 48.0 KHz
Bit depth : 24 bits
Compression mode : Lossy
Stream size : 1.06 GiB (23%)
Language : English
Свернуть
Скриншоты
Изображение
Изображение
Изображение
Изображение

Свернуть
_________________
Изображение
Изображение
Не в сети
Профиль  
 Добавлено: 2011-07-11 20:10 (спустя 1 месяц 15 дней)
Аватара пользователя
Стаж: 8 лет
Сообщений: 19
я первый ))
Не в сети
Профиль  
 Добавлено: 2011-07-11 20:10 (спустя 0 секунд)
Аватара пользователя
Стаж: 8 лет
Сообщений: 19
я первый ))
Не в сети
Профиль  
 Добавлено: 2011-07-11 20:27 (спустя 16 минут)
Top-releaser
Аватара пользователя
Стаж: 8 лет 9 месяцев
Сообщений: 479
Спасибок: 20187
Лайков: 16

Dr.Dizel.:

я первый ))
Изображение
_________________
Изображение
Изображение
Не в сети
Профиль  
Начать новую темуОтветить на тему  [ Сообщений: 4 ] 
Вы не можете начинать темы
Вы не можете отвечать на сообщения
Вы не можете редактировать свои сообщения
Вы не можете удалять свои сообщения