Правила форума

  • В этом разделе создание новых тем Запрещено.
  • Для создания новых тем пользуйтесь Корневым разделом DVD и HD фильмы.
Начать новую темуОтветить на тему  [ Сообщений: 3 ] 
Торрент файл
Размер: 7.91 GB • Зарегистрирован: 5 лет 6 месяцев • Статус: Проверено
Скачан: 371 раз • Желающих скачать: 0 • Поблагодарили: 62 раза
 Раздают: 0  |  0 KB/s  ]   Качают: 0  |  0 KB/s  ] 
 Полного источника не было 3 дня 
Сообщения
 Добавлено: 2011-05-28 12:00
Модератор
Аватара пользователя
Стаж: 7 лет 9 месяцев
Сообщений: 4521
Спасибок: 112857
Лайков: 583
Красная шапочка / Red Riding Hood
«Верь легенде. Берегись оборотня.»

Изображение
Год выпуска: 2011
Страна: США, Канада
Жанр: ужасы, фэнтези, триллер, детектив
Продолжительность: 01:40:24
Перевод: Профессиональный (дубляж) [лицензия]
Режиссёр: Кэтрин Хардвик
Сценарий: Дэвид Джонсон
Продюсер: Леонардо ДиКаприо, Дженнифер Дэвиссон, Алекс Мейс
Оператор: Мэнди Уокер
Композитор: Алекс Хеффес, Брайан Райцелл
Художник: Томас Е. Сандерс, Дон Макколей, Синди Эванс
Монтаж: Нэнси Ричардсон, Джулия Вонг

В ролях: Аманда Сайфред, Гари Олдман, Билли Бёрк, Шайло Фернандез, Макс Айронс, Вирджиния Мэдсен, Лукас Хаас, Джули Кристи, Шона Кейн, Майкл Хоган
Описание: Валери — девочка в красном плаще — предстоит раскрыть, кто же в её родной деревушке является оборотнем. Между тем на личном фронте у Валери тоже не всё просто: мама хочет выдать её замуж за богатого кузнеца Генри, тогда как девушка влюблена в плохиша Питера, местного дровосека.
Раздача: Изображение

Изображение 6.1/10 {941 votes}
Изображение 4.7/10 (7,149 votes)
Качество: BDRip 1080p
Формат: MKV
Видео: MPEG-4 AVC, 1920х800, 23.976 fps, 9388 Кбит/с
Аудио #1: 48 kHz, Русский (AC3, 6 ch, 384 кбит/с)
Аудио #2: 48 kHz, английский (DTS, 6 ch, 1510 Кбит/с)
Скачать: сэмпл
NFO
Krasnaja.shapochka.2011.x264.BDRip.1080p.mkv
Format                           : Matroska
File size                        : 7.91 GiB
Duration                         : 1h 40mn
Overall bit rate                 : 11.3 Mbps
Encoded date                     : UTC 2011-05-27 22:23:26
Writing application              : mkvmerge v3.2.0 ('Beginnings') built on Feb 12 2010 16:46:17
Writing library                  : libebml v0.7.9 + libmatroska v0.8.1

Video
ID                               : 1
Format                           : AVC
Format/Info                      : Advanced Video Codec
Format profile                   : High@L4.1
Format settings, CABAC           : Yes
Format settings, ReFrames        : 5 frames
Muxing mode                      : Container profile=Unknown@4.1
Codec ID                         : V_MPEG4/ISO/AVC
Duration                         : 1h 40mn
Bit rate                         : 9 166 Kbps
Nominal bit rate                 : 9 388 Kbps
Width                            : 1 920 pixels
Height                           : 800 pixels
Display aspect ratio             : 2.40:1
Frame rate                       : 23.976 fps
Resolution                       : 24 bits
Colorimetry                      : 4:2:0
Scan type                        : Progressive
Bits/(Pixel*Frame)               : 0.249
Stream size                      : 6.42 GiB (81%)
Writing library                  : x264 core 115 r1995 c1e60b9
Encoding settings                : cabac=1 / ref=5 / deblock=1:0:0 / analyse=0x3:0x133 / me=umh / subme=8 / psy=1 / psy_rd=1.00:0.00 / mixed_ref=1 / me_range=16 / chroma_me=1 / trellis=1 / 8x8dct=1 / cqm=0 / deadzone=21,11 / fast_pskip=1 / chroma_qp_offset=-2 / threads=24 / sliced_threads=0 / nr=0 / decimate=1 / interlaced=0 / bluray_compat=0 / constrained_intra=0 / bframes=3 / b_pyramid=2 / b_adapt=1 / b_bias=0 / direct=1 / weightb=1 / open_gop=0 / weightp=1 / keyint=250 / keyint_min=23 / scenecut=40 / intra_refresh=0 / rc=2pass / mbtree=0 / bitrate=9388 / ratetol=1.0 / qcomp=0.60 / qpmin=0 / qpmax=69 / qpstep=4 / cplxblur=20.0 / qblur=0.5 / ip_ratio=1.40 / pb_ratio=1.30 / aq=1:1.00
Language                         : English

Audio #1
ID                               : 2
Format                           : AC-3
Format/Info                      : Audio Coding 3
Codec ID                         : A_AC3
Duration                         : 1h 40mn
Bit rate mode                    : Constant
Bit rate                         : 384 Kbps
Channel(s)                       : 6 channels
Channel positions                : Front: L C R, Surround: L R, LFE
Sampling rate                    : 48.0 KHz
Stream size                      : 276 MiB (3%)
Title                            : DUB
Language                         : Russian

Audio #2
ID                               : 3
Format                           : DTS
Format/Info                      : Digital Theater Systems
Codec ID                         : A_DTS
Duration                         : 1h 40mn
Bit rate mode                    : Constant
Bit rate                         : 1 510 Kbps
Channel(s)                       : 6 channels
Channel positions                : Front: L C R, Surround: L R, LFE
Sampling rate                    : 48.0 KHz
Resolution                       : 24 bits
Stream size                      : 1.06 GiB (13%)
Title                            : English
Language                         : English
Свернуть
Скриншоты
Изображение

Изображение

Изображение

Изображение
Свернуть
_________________
Изображение
Не в сети
Профиль  
 Добавлено: 2013-04-28 15:18 (спустя 1 год 11 месяцев)
Техподдержка со знаниями
Аватара пользователя
Стаж: 8 лет 5 месяцев
Сообщений: 3327
Спасибок: 150
Лайков: 37
Интересно, я один ожидал, что на эти колючие деревья-мутанты с шипами как у роз кого-нибудь обязательно должны насадить? :hi_hi_hi:
Не в сети
Профиль  
 Добавлено: 2013-05-22 21:40 (спустя 24 дня)
Аватара пользователя
Стаж: 7 лет 8 месяцев
Сообщений: 33
Фильм -муть. Убивает то,что все дело происходит зимой и все,бля,закаленные!! ))) а из рта даже пар не идет. Сколько же они соли потратили.)) Херь детская. Продолжение мутофильмов про вампиров и оборотней.
Не в сети
Профиль  
Начать новую темуОтветить на тему  [ Сообщений: 3 ] 
Вы не можете начинать темы
Вы не можете отвечать на сообщения
Вы не можете редактировать свои сообщения
Вы не можете удалять свои сообщения