Правила форума

  • В этом разделе создание новых тем Запрещено.
  • Для создания новых тем пользуйтесь Корневым разделом DVD и HD фильмы.
Начать новую темуОтветить на тему  [ 1 сообщение ] 
Торрент файл
Размер: 5.57 GB • Зарегистрирован: 4 года 2 месяца • Статус: Проверено
Скачан: 67 раз • Желающих скачать: 0 • Поблагодарили: 22 раза
 Раздают: 0  |  0 KB/s  ]   Качают: 0  |  0 KB/s  ] 
 Полного источника не было 2 года 
Сообщения
 Добавлено: 2012-09-21 22:55
Модератор
Аватара пользователя
Стаж: 8 лет 1 месяц
Сообщений: 1991
Спасибок: 129866
Лайков: 20
Красные огни / Red Lights


«Готов ли ты поверить в это?»



Изображение
Год выпуска: 2012
Страна: Изображение Испания, США
Жанр: ужасы, триллер, драма
Продолжительность:
01:53:51

Перевод: Профессиональный (полное дублирование) [лицензия]

Режиссер: Родриго Кортес
Сценарий: Родриго Кортес
Продюсер: Родриго Кортес, Адриан Герра, Синди Кауэн, Сара Джиллз, Джорди Муньос
Оператор: Ксави Хименес
Композитор: Виктор Рейес

В ролях:
Киллиан Мёрфи (Tom Buckley), Сигурни Уивер (Margaret Matheson), Роберт Де Ниро (Simon Silver), Тоби Джонс (Paul Shackleton), Элизабет Олсен (Sally Owen), Джоэли Ричардсон (Monica Handsen), Берн Горман (Benedict Cohen), Крэйг Робертс (Ben), Питер Брук (Reporter #1), Карен Шенас-Дэвид (Dana), Джини Спарк (Traci Northrop), Жан Корнет (David Matheson)
Дублёры: Александр Гаврилин (Tom Buckley) (Tom Buckley), Владимир Еремин (Simon Silver; Young Simon Silver) (Simon Silver; Young Simon Silver), Прохор Чеховской (Ben) (Ben), Василий Дахненко (Palladino) (Palladino), Кирилл Туранский (Reporter) (Reporter)

Описание: Ученые-скептики Маргарет Мэтисон и ее ассистент, Том Бакли, занимаются разоблачением шарлатанов. Изучение паранормального приводит их к столкновению с давним противником доктора Мэтисон - человеком по имени Сильвер.
Объявив о своем возвращении, Сильвер впервые за многие годы выступает перед широкой публикой. Знавшие экстрасенса люди не забыли, что незадолго до добровольного ухода Сильвера со сцены таинственной смертью погиб основной критик его деятельности.


Изображение: 6.873 (4 720)
Изображение: 6.30 (4 634)

MPAA: Изображение - Лицам до 17 лет обязательно присутствие взрослого

Доп. Информация

Сборы в США: $52 624
Сборы в России: $1 854 841
Сборы в мире: $4 778 846
Мировая премьера: 20 января 2012
Изображение Релиз на DVD: 24 сентября 2012, «Новый Диск»
Изображение Релиз на Blu-ray: 24 сентября 2012, «Новый Диск»

Свернуть

Релиз группы: Изображение

Качество: BDRip 720p R5

Формат: MKV
Видео: AVC; 1280x544 (2.35:1); 4857 Kbps; 23,976 fps; 0,291 bpp
Аудио №1: русский; AC3; 640 Kbps; CBR; 6 ch; 16 bit
Аудио №2: английский; DTS; 1510 Kbps; CBR; 6 ch; 16 bit
Субтитры №1: русские
Субтитры №2: английские



Знаете ли Вы, что...
  • В видео-лаборатории, где работает Бакли, висит копия плаката «I Want To Believe» (Я хочу верить) известного по сериалу «Секретные материалы» (1993-2002), но цитата изменена на «I Want To Understand» (Я хочу понять).
  • Испанский режиссер Эудженио Мира играет роль молодого Роберта Де Ниро.
Свернуть
BDInfo

General
Unique ID : 196092496351136936367823566780648496948 (0x93860A82DB91CB94ACA3541632B99F34)
Complete name : E:\Red.Lights.2012.720p.BluRay.Rus.Eng.HDCLUB.mkv
Format : Matroska
Format version : Version 2
File size : 5.57 GiB
Duration : 1h 53mn
Overall bit rate : 7 008 Kbps
Movie name : Red Lights (2012) - Release for HDCLUB
Encoded date : UTC 2012-09-20 19:44:54
Writing application : mkvmerge v3.4.0 ('Rapunzel') built on May 15 2010 09:38:20
Writing library : libebml v0.8.0 + libmatroska v0.9.0

Video
ID : 1
Format : AVC
Format/Info : Advanced Video Codec
Format profile : High@L4.1
Format settings, CABAC : Yes
Format settings, ReFrames : 12 frames
Codec ID : V_MPEG4/ISO/AVC
Duration : 1h 53mn
Bit rate : 4 857 Kbps
Width : 1 280 pixels
Height : 544 pixels
Display aspect ratio : 2.35:1
Frame rate mode : Constant
Frame rate : 23.976 fps
Color space : YUV
Chroma subsampling : 4:2:0
Bit depth : 8 bits
Scan type : Progressive
Bits/(Pixel*Frame) : 0.291
Stream size : 3.75 GiB (67%)
Title : Release for HDCLUB
Writing library : x264 core 125 r2208 d9d2288
Encoding settings : cabac=1 / ref=12 / deblock=1:-3:-3 / analyse=0x3:0x113 / me=umh / subme=10 / psy=1 / psy_rd=1.10:0.00 / mixed_ref=1 / me_range=48 / chroma_me=1 / trellis=2 / 8x8dct=1 / cqm=0 / deadzone=21,11 / fast_pskip=0 / chroma_qp_offset=-4 / threads=9 / lookahead_threads=1 / sliced_threads=0 / nr=0 / decimate=0 / interlaced=0 / bluray_compat=0 / constrained_intra=0 / bframes=6 / b_pyramid=2 / b_adapt=2 / b_bias=0 / direct=3 / weightb=1 / open_gop=0 / weightp=2 / keyint=250 / keyint_min=23 / scenecut=40 / intra_refresh=0 / rc_lookahead=40 / rc=2pass / mbtree=0 / bitrate=4857 / ratetol=1.0 / qcomp=0.60 / qpmin=0 / qpmax=69 / qpstep=4 / cplxblur=20.0 / qblur=0.5 / vbv_maxrate=40000 / vbv_bufsize=40000 / nal_hrd=none / ip_ratio=1.40 / pb_ratio=1.30 / aq=1:0.80
Language : English
Default : No
Forced : No

Audio #1
ID : 2
Format : AC-3
Format/Info : Audio Coding 3
Mode extension : CM (complete main)
Format settings, Endianness : Big
Codec ID : A_AC3
Duration : 1h 53mn
Bit rate mode : Constant
Bit rate : 640 Kbps
Channel(s) : 6 channels
Channel positions : Front: L C R, Side: L R, LFE
Sampling rate : 48.0 KHz
Bit depth : 16 bits
Compression mode : Lossy
Stream size : 521 MiB (9%)
Title : AC3 5.1 @ 640 kbps - Dub, Blu-ray
Language : Russian
Default : Yes
Forced : No

Audio #2
ID : 3
Format : DTS
Format/Info : Digital Theater Systems
Codec ID : A_DTS
Duration : 1h 53mn
Bit rate mode : Constant
Bit rate : 1 510 Kbps
Channel(s) : 6 channels
Channel positions : Front: L C R, Side: L R, LFE
Sampling rate : 48.0 KHz
Bit depth : 16 bits
Compression mode : Lossy
Stream size : 1.20 GiB (22%)
Title : DTS 5.1 @ 1536 kbps
Language : English
Default : No
Forced : No

Text #1
ID : 4
Format : UTF-8
Codec ID : S_TEXT/UTF8
Codec ID/Info : UTF-8 Plain Text
Language : Russian
Default : No
Forced : No

Text #2
ID : 5
Format : UTF-8
Codec ID : S_TEXT/UTF8
Codec ID/Info : UTF-8 Plain Text
Language : English
Default : No
Forced : No

Menu
00:00:00.000 : en:00:00:00.000
00:11:11.963 : en:00:11:11.963
00:19:44.308 : en:00:19:44.308
00:27:13.382 : en:00:27:13.382
00:39:42.672 : en:00:39:42.672
00:49:09.238 : en:00:49:09.238
00:59:37.324 : en:00:59:37.324
01:11:02.216 : en:01:11:02.216
01:23:46.104 : en:01:23:46.104
01:30:14.576 : en:01:30:14.576
01:37:08.322 : en:01:37:08.322
01:48:04.436 : en:01:48:04.436

Свернуть
Скриншоты
Изображение
Изображение
Изображение
Изображение
Свернуть

_________________
Себе ты можешь не качать, но раздавать другим обязан!
Не в сети
Профиль  
Начать новую темуОтветить на тему  [ 1 сообщение ] 
Вы не можете начинать темы
Вы не можете отвечать на сообщения
Вы не можете редактировать свои сообщения
Вы не можете удалять свои сообщения