Правила форума

  • В этом разделе создание новых тем Запрещено.
  • Для создания новых тем пользуйтесь Корневым разделом DVD и HD фильмы.
Начать новую темуОтветить на тему  [ Сообщений: 8 ] 
Торрент файл
Размер: 5.77 GB • Зарегистрирован: 3 года 11 месяцев • Статус: Проверено
Скачан: 30 раз • Желающих скачать: 0 • Поблагодарили: 14 раз
 Раздают: 0  |  0 KB/s  ]   Качают: 0  |  0 KB/s  ] 
 Полного источника не было 3 года 2 месяца 
Сообщения
 Добавлено: 2012-12-16 10:32
Аватара пользователя
Стаж: 7 лет 5 месяцев
Сообщений: 65
Спасибок: 35
Красные огни / Red Lights

Изображение


Год выпуска: 2012
Страна: Испания, США
Жанр: триллер, драма, детектив
Продолжительность: 01:53:51
Перевод: Профессиональный (дубляж) + Оригинальная звуковая дорожка

Режиссёр: Родриго Кортес
В ролях: Роберт Де Ниро, Сигурни Уивер, Киллиан Мёрфи, Элизабет Олсен, Тоби Джонс, Джоэли Ричардсон, Крэйг Робертс, Берн Горман, Карен Шенас-Дэвид, Жан Корнет
Описание: Ученые-скептики Маргарет Мэтисон и ее ассистент, Том Бакли, занимаются разоблачением шарлатанов. Изучение паранормального приводит их к столкновению с давним противником доктора Мэтисон — человеком по имени Сильвер.
Объявив о своем возвращении, Сильвер впервые за многие годы выступает перед широкой публикой. Знавшие экстрасенса люди не забыли, что незадолго до добровольного ухода Сильвера со сцены таинственной смертью погиб основной критик его деятельности.


Качество: BDRip
Формат: MKV
Видео кодек: AVC
Аудио кодек: AC3 (Dolby Digital)
Видео: AVC, 1920 x 816 (2.353), 5972 Кбит/сек, 23.976 fps
Аудио #1: Русский, AC-3, 640 Кбит/сек, 6 каналов, 48,0 КГц [Профессиональный (дубляж)]
Аудио #2: Английский, AC-3, 640 Кбит/сек, 6 каналов, 48,0 КГц [Оригинальная звуковая дорожка]

MediaInfo
Общее
Уникальный идентификатор : 194726563581403737195240053419443132223 (0x927EF8D37A7BA243B0AADFC44FD2973F)
Формат : Matroska
Версия формата : Version 2
Размер файла : 5,77 Гбайт
Продолжительность : 1 ч. 53 м.
Общий поток : 7254 Кбит/сек
Название фильма : Красные огни.2012
Дата кодирования : UTC 2012-09-22 05:23:26
Программа кодирования : mkvmerge v5.8.0 ('No Sleep / Pillow') built on Sep 2 2012 15:37:04
Библиотека кодирования : libebml v1.2.3 + libmatroska v1.3.0

Видео
Идентификатор : 1
Формат : AVC
Формат/Информация : Advanced Video Codec
Профиль формата : High@L4.1
Параметр CABAC формата : Да
Параметр ReFrames формата : 5 кадров
Идентификатор кодека : V_MPEG4/ISO/AVC
Продолжительность : 1 ч. 53 м.
Битрейт : 5972 Кбит/сек
Ширина : 1920 пикселей
Высота : 816 пикселей
Соотношение сторон : 2,35:1
Режим частоты кадров : Постоянный
Частота кадров : 23,976 кадра/сек
Цветовое пространство : YUV
Субдискретизация насыщенности : 4:2:0
Битовая глубина : 8 бит
Тип развёртки : Прогрессивная
Бит/(Пиксели*Кадры) : 0.159
Размер потока : 4,64 Гбайт (80%)
Заголовок : Rip by Boriy
Библиотека кодирования : x264 core 128 r2216 198a7ea
Настройки программы : cabac=1 / ref=5 / deblock=1:0:0 / analyse=0x3:0x113 / me=umh / subme=10 / psy=1 / psy_rd=1.00:0.10 / mixed_ref=1 / me_range=32 / chroma_me=1 / trellis=2 / 8x8dct=1 / cqm=0 / deadzone=21,11 / fast_pskip=0 / chroma_qp_offset=-3 / threads=12 / lookahead_threads=2 / sliced_threads=0 / nr=0 / decimate=0 / interlaced=0 / bluray_compat=0 / constrained_intra=0 / bframes=5 / b_pyramid=2 / b_adapt=2 / b_bias=0 / direct=3 / weightb=1 / open_gop=0 / weightp=2 / keyint=240 / keyint_min=23 / scenecut=40 / intra_refresh=0 / rc=2pass / mbtree=0 / bitrate=5972 / ratetol=1.0 / qcomp=0.60 / qpmin=0 / qpmax=69 / qpstep=4 / cplxblur=20.0 / qblur=0.5 / ip_ratio=1.40 / pb_ratio=1.30 / aq=1:1.00
Язык : English
Default : Да
Forced : Нет

Аудио #1
Идентификатор : 2
Формат : AC-3
Формат/Информация : Audio Coding 3
Расширение режима : CM (complete main)
Параметр Endianness формата : Big
Идентификатор кодека : A_AC3
Продолжительность : 1 ч. 53 м.
Вид битрейта : Постоянный
Битрейт : 640 Кбит/сек
Каналы : 6 каналов
Расположение каналов : Front: L C R, Side: L R, LFE
Частота : 48,0 КГц
Битовая глубина : 16 бит
Метод сжатия : С потерями
Размер потока : 521 Мбайт (9%)
Заголовок : Дубляж
Язык : Russian
Default : Да
Forced : Нет

Аудио #2
Идентификатор : 3
Формат : AC-3
Формат/Информация : Audio Coding 3
Расширение режима : CM (complete main)
Параметр Endianness формата : Big
Идентификатор кодека : A_AC3
Продолжительность : 1 ч. 53 м.
Вид битрейта : Постоянный
Битрейт : 640 Кбит/сек
Каналы : 6 каналов
Расположение каналов : Front: L C R, Side: L R, LFE
Частота : 48,0 КГц
Битовая глубина : 16 бит
Метод сжатия : С потерями
Размер потока : 521 Мбайт (9%)
Заголовок : Оригинал
Язык : English
Default : Нет
Forced : Нет

Текст #1
Идентификатор : 4
Формат : UTF-8
Идентификатор кодека : S_TEXT/UTF8
Идентификатор кодека/Информация : UTF-8 Plain Text
Язык : Russian
Default : Нет
Forced : Нет

Текст #2
Идентификатор : 5
Формат : UTF-8
Идентификатор кодека : S_TEXT/UTF8
Идентификатор кодека/Информация : UTF-8 Plain Text
Язык : English
Default : Нет
Forced : Нет

Меню
00:00:00.000 : :Chapter 1
00:11:11.962 : :Chapter 2
00:19:44.308 : :Chapter 3
00:27:13.380 : :Chapter 4
00:39:42.670 : :Chapter 5
00:49:09.237 : :Chapter 6
00:59:37.323 : :Chapter 7
01:11:02.216 : :Chapter 8
01:23:46.104 : :Chapter 9
01:30:14.575 : :Chapter 10
01:37:08.322 : :Chapter 11
01:48:04.436 : :Chapter 12
01:53:51.573 : :Chapter 13
Свернуть

Скриншоты
Изображение
Изображение
Изображение
Свернуть


Последний раз редактировалось noxin400 2012-12-16 17:05, всего редактировалось 2 раз(а).
Не в сети
Профиль  
 Добавлено: 2012-12-16 11:01 (спустя 28 минут)
Модератор релиз-группы
Аватара пользователя
Стаж: 6 лет 5 месяцев
Возраст: 25
Сообщений: 622
Спасибок: 10258
Лайков: 7
noxin400
В название темы поправь на BDRip
_________________
Изображение
Не в сети
Профиль  
 Добавлено: 2012-12-16 11:01 (спустя 1 секунда)
Модератор релиз-группы
Аватара пользователя
Стаж: 6 лет 5 месяцев
Возраст: 25
Сообщений: 622
Спасибок: 10258
Лайков: 7
noxin400
В название темы поправь на BDRip
_________________
Изображение
Не в сети
Профиль  
 Добавлено: 2012-12-16 11:08 (спустя 6 минут)
Аватара пользователя
Стаж: 7 лет 5 месяцев
Сообщений: 65
Спасибок: 35
Slovetskii уже
Не в сети
Профиль  
 Добавлено: 2012-12-16 15:56 (спустя 4 часа)
Руководитель релиз-группы
Аватара пользователя
Стаж: 7 лет 5 месяцев
Возраст: 31
Сообщений: 3406
Спасибок: 46729
Лайков: 5
noxin400
Для DVD и HD-разделов необходимы развернутые технические данные:
Для HD: Отчет BDInfo→ (после нажатия кнопки «scan bitrates» и окончания сканирования) или MediaInfo→ ( весь текст из режима view (вид) → text (текст).) (под спойлером)
Не в сети
Профиль  
 Добавлено: 2012-12-16 16:20 (спустя 24 минуты)
Аватара пользователя
Стаж: 7 лет 5 месяцев
Сообщений: 65
Спасибок: 35
askboy
поправил
Не в сети
Профиль  
 Добавлено: 2012-12-17 22:08 (спустя 1 день 5 часов)
Аватара пользователя
Стаж: 7 лет 5 месяцев
Сообщений: 65
Спасибок: 35
Как фильм?
Не в сети
Профиль  
 Добавлено: 2012-12-17 22:16 (спустя 8 минут)
Техподдержка
Аватара пользователя
Стаж: 8 лет 5 месяцев
Возраст: 44
Сообщений: 24817
Спасибок: 3036
Лайков: 12

noxin400:

Как фильм?
Вполне смотрибелен... :a_g_a:
_________________
Изображение
Не в сети
Профиль  
Начать новую темуОтветить на тему  [ Сообщений: 8 ] 
Вы не можете начинать темы
Вы не можете отвечать на сообщения
Вы не можете редактировать свои сообщения
Вы не можете удалять свои сообщения