Правила форума

  • В этом разделе создание новых тем Запрещено.
  • Для создания новых тем пользуйтесь Корневым разделом DVD и HD фильмы.
Начать новую темуОтветить на тему  [ Сообщений: 3 ] 
Торрент файл
Размер: 4.85 GB • Зарегистрирован: 4 года 5 месяцев • Статус: T Временный релиз
Скачан: 55 раз • Желающих скачать: 0 • Поблагодарили: 10 раз
 Раздают: 0  |  0 KB/s  ]   Качают: 0  |  0 KB/s  ] 
 Полного источника не было 2 года 10 месяцев 
Сообщения
 Добавлено: 2012-06-12 11:20
Модератор
Аватара пользователя
Стаж: 8 лет 1 месяц
Сообщений: 1991
Спасибок: 129864
Лайков: 20
Красные xвосты / Red Tails


«High-Octane Action and Daring Dogfights!»



Изображение
Год выпуска: 2012
Страна: Изображение США
Жанр: боевик, драма, приключения, военный, история
Продолжительность:
02:05:00

Перевод: Любительский (одноголосый)

Режиссер: Энтони Хемингуэй
Сценарий: Джон Ридли, Аарон МакГрудер, John B. Holway
Продюсер: Рик МакКаллум, Чэз Флойд Джонсон, Ales Komárek, Джордж Лукас
Оператор: Джон Б. Аронсон
Композитор: Теренс Блэнчард

В ролях:
Терренс Ховард (Colonel A.J. Bullard), Кьюба Гудинг мл. (Major Emanuelle Stance), Нэйт Паркер (Marty 'Easy' Julian), Дэвид Ойелоуо (Joe 'Lightning' Little), Тристан Уайлдс (Ray 'Junior' Gannon), Элайджа Келли (Samuel 'Joker' George), Шаффер Смит (Andrew 'Smoky' Salem), Кевин Филлипс (Leon 'Neon' Edwards), Брайан Крэнстон (Colonel William Mortamus), Ли Тергесен (Colonel Jack Tomilson), Мэттью Марш (Brigadier General Hauser), Джералд МакРэйни (Lieutenant General Luntz)

Описание: История молодого чернокожего пилота, который превозмогая расизм и неприязнь, сумел сплотить братьев по крови и создал первый в истории воздушный батальон, состоящий исключительно из афроамериканцев.


Изображение: 5.938 (342)
Изображение: 5.70 (9 892)

MPAA: Изображение - Детям до 13 лет просмотр не желателен

Доп. Информация
Бюджет: $58 000 000
Сборы в США: $49 876 377
Мировая премьера: 20 января 2012

Свернуть


Качество: BDRip 720p

Формат: MKV
Видео: AVC; 1280x534 (2.40:1); 4355 Kbps; 23,976 fps; 0,266 bpp
Аудио №1: Russian; AC3; 448 Kbps; CBR; 6 ch; 16 bit
Аудио №2: English; AC3; 640 Kbps; CBR; 6 ch; 16 bit
Субтитры №1: English
Субтитры №2: English
Субтитры №3: English
Изображение


Знаете ли Вы, что...
  • Идея постановки фильма об афроамериканских пилотах, известных под названием Лётчики Таскиги (The Tuskegee Airmen), появилась у Джорджа Лукаса ещё в 1988 году. На то время предположительной датой релиза был 1992 год, сценарием должен был заняться Кевин Салливан, а режиссёром стать Томас Картер.
  • После того как от работы с проектом отказались все крупные киностудии Голливуда, Джорджу Лукасу пришлось практически полностью финансировать 58-миллионный бюджет картины плюс выделить дополнительно 35 миллионов долларов на подготовку релиза и рекламную кампанию.
  • Летом 2008 года Джордж Лукас в частной беседе предлагал место режиссёра Сэмюэлу Джексону. Рабочий сценарий будущего фильма понравился тому, однако отказаться на полтора года от своей актёрской карьеры Сэмюэл Джексон был не готов.
  • Во время съёмок в Чехии актёры прошли две с половиной недели тренировочного лагеря. Условия в нём были максимально приближены к тем, что имели в период подготовки лётчики программы Таскиги в период Второй мировой войны.
  • В марте 2010 года при пересъёмке отдельных сцен режиссёр Энтони Хемингуэй был занят работой на телевидении над сериалом «Тримей». В его отсутствие обязанности режиссёра пришлось взять на себя Джорджу Лукасу.
  • За семнадцать лет до выхода «Красных хвостов» Кьюба Гудинг-младший сыграл одну из главных ролей в также посвящённом афроамериканским лётчикам телевизионном фильме канала HBO «Пилоты из Таскиги» (1995).
  • Терренс Ховард ранее играл лётчика Таскиги в фильме «Война Харта» (2002).
  • До стартовавшей в 1941 году экспериментальной программы Таскиги афроамериканцам не разрешалось служить в военной авиации. Всего в рамках этой программы с 1941 по 1946 год было подготовлено 996 афроамериканских пилотов. Окончательное решение об отмене расовой сегрегации в американской армии было принято президентом Трумэном только в 1948 году.
  • За пару лет до начала непосредственной работы над фильмом несколько лётчиков-ветеранов получили приглашение на знаменитое ранчо Джорджа Лукаса в Калифорнии. Их рассказы и воспоминания были использованы при дальнейшей разработке проекта.
  • Студия Lucasfilm получила доступ к хранящимся в музеях и архивах полётным журналам пилотов программы Таскиги.
Свернуть
BDInfo
General
Unique ID : 201104419640859930282334825560539932269 (0x974B4D68596FA59DB3509471E61C266D)
Complete name : D:\Red.Tails.2012..mkv
Format : Matroska
File size : 4.85 GiB
Duration : 2h 5mn
Overall bit rate : 5 554 Kbps
Encoded date : UTC 2012-06-11 12:24:26
Writing application : mkvmerge v4.5.0 ('Speed of Light') сборка от Feb 1 2011 02:10:32
Writing library : libebml v1.2.0 + libmatroska v1.1.0
Video
ID : 1
Format : AVC
Format/Info : Advanced Video Codec
Format profile : High@L4.1
Format settings, CABAC : Yes
Format settings, ReFrames : 12 frames
Codec ID : V_MPEG4/ISO/AVC
Duration : 2h 5mn
Bit rate : 4 355 Kbps
Width : 1 280 pixels
Height : 534 pixels
Display aspect ratio : 2.35:1
Frame rate : 23.976 fps
Color space : YUV
Chroma subsampling : 4:2:0
Bit depth : 8 bits
Scan type : Progressive
Bits/(Pixel*Frame) : 0.266
Stream size : 3.80 GiB (78%)
Title : Red Tails (2012)
Writing library : x264 core 122 r2184 5c85e0a
Encoding settings : cabac=1 / ref=12 / deblock=1:-3:-3 / analyse=0x3:0x113 / me=tesa / subme=11 / psy=1 / psy_rd=1.15:0.00 / mixed_ref=1 / me_range=16 / chroma_me=1 / trellis=2 / 8x8dct=1 / cqm=0 / deadzone=21,11 / fast_pskip=0 / chroma_qp_offset=-2 / threads=12 / sliced_threads=0 / nr=0 / decimate=0 / interlaced=0 / bluray_compat=0 / constrained_intra=0 / bframes=9 / b_pyramid=2 / b_adapt=2 / b_bias=0 / direct=3 / weightb=1 / open_gop=0 / weightp=2 / keyint=250 / keyint_min=23 / scenecut=40 / intra_refresh=0 / rc=crf / mbtree=0 / crf=14.8 / qcomp=0.60 / qpmin=0 / qpmax=69 / qpstep=4 / ip_ratio=1.40 / pb_ratio=1.30 / aq=1:0.70
Language : English
Matrix coefficients : BT.709-5, BT.1361, IEC 61966-2-4 709, SMPTE RP177
Audio #1
ID : 2
Format : AC-3
Format/Info : Audio Coding 3
Mode extension : CM (complete main)
Codec ID : A_AC3
Duration : 2h 5mn
Bit rate mode : Constant
Bit rate : 448 Kbps
Channel(s) : 6 channels
Channel positions : Front: L C R, Side: L R, LFE
Sampling rate : 48.0 KHz
Bit depth : 16 bits
Compression mode : Lossy
Stream size : 401 MiB (8%)
Title : VO
Language : Russian
Audio #2
ID : 3
Format : AC-3
Format/Info : Audio Coding 3
Mode extension : CM (complete main)
Codec ID : A_AC3
Duration : 2h 5mn
Bit rate mode : Constant
Bit rate : 640 Kbps
Channel(s) : 6 channels
Channel positions : Front: L C R, Side: L R, LFE
Sampling rate : 48.0 KHz
Bit depth : 16 bits
Compression mode : Lossy
Stream size : 572 MiB (12%)
Language : English
Text #1
ID : 4
Format : UTF-8
Codec ID : S_TEXT/UTF8
Codec ID/Info : UTF-8 Plain Text
Language : English
Text #2
ID : 5
Format : UTF-8
Codec ID : S_TEXT/UTF8
Codec ID/Info : UTF-8 Plain Text
Title : SDH
Language : English
Text #3
ID : 6
Format : UTF-8
Codec ID : S_TEXT/UTF8
Codec ID/Info : UTF-8 Plain Text
Language : English
Свернуть
Скриншоты
Изображение
Изображение
Изображение
Изображение
Свернуть

_________________
Себе ты можешь не качать, но раздавать другим обязан!
Не в сети
Профиль  
 Добавлено: 2012-07-14 00:26 (спустя 1 месяц 1 день)
Аватара пользователя
Стаж: 8 лет 7 месяцев
Сообщений: 8
Эдакая разудаленькая чунга-чанга в воздухе. Ничего кроме улыбки сожаления, фильм вызвать не способен.
Но за раздачу спасибо.
Не в сети
Профиль  
 Добавлено: 2012-08-13 10:50 (спустя 30 дней)
Кинокомментатор
Аватара пользователя
Стаж: 8 лет 6 месяцев
Возраст: 39
Сообщений: 1841
Спасибок: 130
Лайков: 4

Цинничный Романтик:

Эдакая разудаленькая чунга-чанга в воздухе. Ничего кроме улыбки сожаления, фильм вызвать не способен.
Но за раздачу спасибо.

Смысл у сюжета безусловно есть, но вот с боевой точки зрения конечно слабоват. Здесь вспоминается только "Пёрл-Харбор". Однако ввиду дефицита фильмов такого рода, то посмотреть можно хотя бы из-за спецэффектов.
Не в сети
Профиль  
Начать новую темуОтветить на тему  [ Сообщений: 3 ] 
Вы не можете начинать темы
Вы не можете отвечать на сообщения
Вы не можете редактировать свои сообщения
Вы не можете удалять свои сообщения