Правила форума

  • В этом разделе создание новых тем Запрещено.
  • Для создания новых тем пользуйтесь Корневым разделом DVD и HD фильмы.
Начать новую темуОтветить на тему  [ Сообщений: 4 ] 
Торрент файл
Размер: 8.15 GB • Зарегистрирован: 5 лет • Статус: Проверено
Скачан: 167 раз • Желающих скачать: 0 • Поблагодарили: 23 раза
 Раздают: 0  |  0 KB/s  ]   Качают: 0  |  0 KB/s  ] 
 Полного источника не было 20 дней 
Сообщения
 Добавлено: 2011-11-22 07:43
Top-releaser
Аватара пользователя
Стаж: 7 лет 3 месяца
Возраст: 25
Сообщений: 1036
Спасибок: 2694
Лайков: 9
Красный штат / Red State

«Побойся Бога»

Изображение



Год выхода: 2011
Страна: США

Жанр: триллер, драма
Продолжительность: 01:28:27
Перевод: Дублированный [лицензия]

Режиссер: Кевин Смит
Сценарий: Кевин Смит
Продюсер: Джон Гордон, Виктор Чой, Джейсон Кларк, ...
Оператор: Дэвид Клайн

В ролях: Майкл Ангарано, Дебора Акила, Николас Браун, Ронни Коннелл, Кайли Дэфер, Джои Фигуроа, Кайл Галлнер, Анна Ганн, Мэтт Л. Джонс, Джон Лэси

Описание: Три подростка отвечают на интернет-предложение сексуального характера, но все их эротические фантазии заканчиваются тем, что, очнувшись после потери сознания, они оказываются в заложниках у фанатиков религиозной общины. В стремлении направить на путь истинный сотни заблудших душ местный священник считает оправданным пролить кровь парочки согрешивших, которыми являются главные герои. В попытке спастись из ловушки сектантов они обнаруживают комнату, полностью заполненную оружием. Становится ясно, что тут все настроены агрессивно, и их агрессия, судя по количеству боевых припасов, способна уложить на лопатки тысячи. Но что сильнее: религиозная идея проповедника или животное желание выжить ни в чем не повинных парней?

KinoPoisk.ru: 6.097
IMDb.com: 6.3/10

Pаздача группы:Изображение

Бюджет $4 000 000
Сборы в США $1 104 682
Сборы в России $155 303


Качество: BDRip 1080p R5
Формат: Mkv

Видео: MPEG4 Video (H264) 1920x1036 23.98fps 11.3 Mbps
Аудио 1: Dolby AC3 48000Hz 6ch 384 Kbps
Аудио 2: Dts 48000Hz 6ch 1 510 Kbps
Subtitle: Utf-8

Изображение

MediaInfo
General
Unique ID : 175667649676192487797992675943463552645 (0x84285BD244079363819E7B251FEC8685)
Complete name : H:\Download\Krasnyj.schtat.DVD_RG.(1080p).mkv
Format : Matroska
Format version : Version 2
File size : 8.15 GiB
Duration : 1h 28mn
Overall bit rate : 13.2 Mbps
Movie name : --SCHUMAHER--
Encoded date : UTC 2011-11-21 21:43:38
Writing application : mkvmerge v5.0.1 ('Es ist Sommer') built on Oct 9 2011 11:55:43
Writing library : libebml v1.2.2 + libmatroska v1.3.0

Video
ID : 1
Format : AVC
Format/Info : Advanced Video Codec
Format profile : High@L4.1
Format settings, CABAC : Yes
Format settings, ReFrames : 4 frames
Codec ID : V_MPEG4/ISO/AVC
Duration : 1h 28mn
Bit rate : 11.3 Mbps
Width : 1 920 pixels
Height : 1 036 pixels
Display aspect ratio : 1.853
Frame rate : 23.976 fps
Color space : YUV
Chroma subsampling : 4:2:0
Bit depth : 8 bits
Scan type : Progressive
Bits/(Pixel*Frame) : 0.237
Stream size : 6.81 GiB (84%)
Writing library : x264 core 116 r2074+610 09ac020
Encoding settings : cabac=1 / ref=4 / deblock=1:-3:-3 / analyse=0x3:0x113 / me=umh / subme=10 / psy=1 / fade_compensate=0.00 / psy_rd=1.05:0.10 / mixed_ref=1 / me_range=48 / chroma_me=1 / trellis=2 / 8x8dct=1 / cqm=2 / deadzone=21,11 / fast_pskip=0 / chroma_qp_offset=-2 / threads=12 / sliced_threads=0 / nr=0 / decimate=1 / interlaced=0 / bluray_compat=0 / constrained_intra=0 / fgo=0 / bframes=6 / b_pyramid=2 / b_adapt=2 / b_bias=0 / direct=3 / weightb=1 / open_gop=0 / weightp=2 / keyint=250 / keyint_min=23 / scenecut=40 / intra_refresh=0 / rc_lookahead=60 / rc=2pass / mbtree=1 / bitrate=11305 / ratetol=2.0 / qcomp=0.70 / qpmin=1 / qpmax=63 / qpstep=4 / cplxblur=20.0 / qblur=0.5 / vbv_maxrate=40000 / vbv_bufsize=30000 / nal_hrd=none / ip_ratio=1.40 / aq=2:1.00
Language : English

Audio #1
ID : 2
Format : AC-3
Format/Info : Audio Coding 3
Mode extension : CM (complete main)
Codec ID : A_AC3
Duration : 1h 28mn
Bit rate mode : Constant
Bit rate : 384 Kbps
Channel(s) : 6 channels
Channel positions : Front: L C R, Side: L R, LFE
Sampling rate : 48.0 KHz
Bit depth : 16 bits
Compression mode : Lossy
Stream size : 243 MiB (3%)
Language : Russian

Audio #2
ID : 3
Format : DTS
Format/Info : Digital Theater Systems
Codec ID : A_DTS
Duration : 1h 28mn
Bit rate mode : Constant
Bit rate : 1 510 Kbps
Channel(s) : 6 channels
Channel positions : Front: L C R, Side: L R, LFE
Sampling rate : 48.0 KHz
Bit depth : 24 bits
Compression mode : Lossy
Stream size : 956 MiB (11%)
Language : English

Text
ID : 4
Format : UTF-8
Codec ID : S_TEXT/UTF8
Codec ID/Info : UTF-8 Plain Text
Language : English


Свернуть
Скриншоты
Изображение
Изображение
Изображение
Изображение
Изображение
Свернуть
Не в сети
Профиль  
 Добавлено: 2011-11-22 12:43 (спустя 5 часов)
Кинокомментатор
Аватара пользователя
Стаж: 9 лет 1 месяц
Сообщений: 1332
Лайков: 54
неее) ну фильм зачёт! сто процентов! матом только хочется ругаться:)
люди верующие скажут, что фильм богохульный и смотреть его это богохульство!
мне он понравился сильно! церковные фанатики... агенты цру - фанатики структурные... мы с вами) похотливые заблудшие овцы:) зачёт кино! советую всем! меня цепануло) заставило подумать:)
8 балов киноше)
_________________
Я ВКонтакте
Не в сети
Профиль  
 Добавлено: 2011-11-22 13:35 (спустя 52 минуты)
Аватара пользователя
Стаж: 7 лет 8 месяцев
Сообщений: 41
силос 100%
Не в сети
Профиль  
 Добавлено: 2012-01-16 12:45 (спустя 1 месяц 23 дня)
Аватара пользователя
Стаж: 8 лет 11 месяцев
Возраст: 27
Сообщений: 721
Спасибок: 5528
Лайков: 1
зачетный фильмец, мне понравился :)
_________________
Изображение
Не в сети
Профиль  
Начать новую темуОтветить на тему  [ Сообщений: 4 ] 
Вы не можете начинать темы
Вы не можете отвечать на сообщения
Вы не можете редактировать свои сообщения
Вы не можете удалять свои сообщения