Правила форума

  • В этом разделе создание новых тем Запрещено.
  • Для создания новых тем пользуйтесь Корневым разделом DVD и HD фильмы.
Начать новую темуОтветить на тему  [ Сообщений: 4 ] 
Торрент файл
Размер: 4.38 GB • Зарегистрирован: 3 года 10 месяцев • Статус: # Сомнительно
Скачан: 174 раза • Желающих скачать: 0 • Поблагодарили: 42 раза
 Раздают: 0  |  0 KB/s  ]   Качают: 0  |  0 KB/s  ] 
 Полного источника не было 10 часов 
Сообщения
 Добавлено: 2013-01-11 18:24
Аватара пользователя
Стаж: 5 лет 4 месяца
Возраст: 26
Сообщений: 1658
Спасибок: 45803
Лайков: 69
Крепкий орешек 4.0 / Die Hard 4.0


«Yippee Ki Yay Mo - John 6:27».

Изображение
Год выпуска: 2007
Страна: Изображение Изображение
Жанр: Боевик, Триллер, Криминал
Продолжительность: 02:08:42
Перевод: Дублированный

Режиссёр: Лен Уайзман

Сценарий: Марк Бомбэк, Дэвид Маркони, Джон Карлин, Родерик Торп

Продюсер: Стивен Дж. Идс, Майкл Фоттрел, Арнольд Рифкин, Уильям Уишер мл.

Оператор: Саймон Дагган

Композитор: Марко Белтрами

Xудожник: Патрик Татопулос, Бит Фрутигер, Джеймс Хегедус

В ролях: Брюс Уиллис, Тимоти Олифант, Джастин Лонг, Мэгги Кью, Клифф Кёртис, Джонатан Садовский, Эндрю Фридман, Кевин Смит, Йорго Константин, Сирил Раффаэлли


Описание: Мир опять на краю гибели из-за новой террористической угрозы. В этот раз в «заложниках» оказывается всемирная компьютерная сеть. Правительство и спецслужбы бессильны, все готово погрузиться в хаос. Но на борьбу с нависшей над миром опасностью выходит наш старый герой Джон МакКлейн со своей неразлучной подругой «Береттой».

Он давно в отставке, но когда на карту поставлена жизнь членов его семьи, он не будет стоять в стороне и бросит вызов террористам. Однако в этот раз ему уже не справиться без молодого, но очень талантливого помощника.



Изображение



Сборы в США: $110 000 000
Сборы в США: $134 529 403
Сборы в России: $8 678 725
Мировая премьера:12 июня 2007
Российский прокат:27 июня 2007, «Фокс/Гемини»
Релиз на DVD:30 октября 2008, «Двадцатый Век Фокс СНГ».
Релиз на Blu-Ray:25 марта 2010, «Двадцатый Век Фокс СНГ».

Качество: BDRip 1080p
Формат: Matroska
Видео: 1920x800 (2,40:1), 23.976 fps, 4482 kbps
Аудио: 48 kHz, AC-3, 6 ch, 384 kbps



Изображение


MediaInfo
General
Unique ID : 238155816440359088549417127168152868850 (0xB32B244F0D7AA65895799EC3135E97F2)
Complete name : D:\Фильмы DivX\Die.Hard.4.0.2007.BDRip.1080p.Rus.mkv
Format : Matroska
Format version : Version 2
File size : 4.38 GiB
Duration : 2h 8mn
Overall bit rate : 4 868 Kbps
Encoded date : UTC 2010-12-25 11:17:00
Writing application : mkvmerge v4.0.0 ('The Stars were mine') сборка от Jun 6 2010 16:18:42
Writing library : libebml v1.0.0 + libmatroska v1.0.0

Video
ID : 1
Format : AVC
Format/Info : Advanced Video Codec
Format profile : High@L4.1
Format settings, CABAC : Yes
Format settings, ReFrames : 4 frames
Codec ID : V_MPEG4/ISO/AVC
Duration : 2h 8mn
Bit rate : 4 482 Kbps
Width : 1 920 pixels
Height : 800 pixels
Display aspect ratio : 2.40:1
Frame rate mode : Constant
Frame rate : 23.976 fps
Color space : YUV
Chroma subsampling : 4:2:0
Bit depth : 8 bits
Scan type : Progressive
Bits/(Pixel*Frame) : 0.122
Stream size : 3.94 GiB (90%)
Writing library : x264 core 112 r1834 a51816a
Encoding settings : cabac=1 / ref=5 / deblock=1:-1:-1 / analyse=0x3:0x133 / me=umh / subme=9 / psy=1 / psy_rd=1.00:0.00 / mixed_ref=1 / me_range=24 / chroma_me=1 / trellis=1 / 8x8dct=1 / cqm=0 / deadzone=21,11 / fast_pskip=0 / chroma_qp_offset=-2 / threads=12 / sliced_threads=0 / nr=0 / decimate=0 / interlaced=0 / constrained_intra=0 / bframes=5 / b_pyramid=1 / b_adapt=2 / b_bias=0 / direct=3 / weightb=1 / open_gop=0 / weightp=2 / keyint=250 / keyint_min=23 / scenecut=40 / intra_refresh=0 / rc_lookahead=60 / rc=2pass / mbtree=1 / bitrate=4482 / ratetol=1.0 / qcomp=0.70 / qpmin=0 / qpmax=51 / qpstep=4 / cplxblur=20.0 / qblur=0.5 / ip_ratio=1.40 / aq=1:1.00
Language : English
Default : Yes
Forced : No

Audio
ID : 2
Format : AC-3
Format/Info : Audio Coding 3
Mode extension : CM (complete main)
Format settings, Endianness : Big
Codec ID : A_AC3
Duration : 2h 8mn
Bit rate mode : Constant
Bit rate : 384 Kbps
Channel(s) : 6 channels
Channel positions : Front: L C R, Side: L R, LFE
Sampling rate : 48.0 KHz
Bit depth : 16 bits
Compression mode : Lossy
Stream size : 353 MiB (8%)
Language : Russian
Default : Yes
Forced : No

Свернуть

Трейлер
Свернуть

Скриншоты
Изображение
Изображение
Изображение
Свернуть
_________________
S.T.A.L.K.E.R.: Lost Alpha
Не в сети
Профиль  
 Добавлено: 2013-01-11 19:30 (спустя 1 час 5 минут)
Аватара пользователя
Стаж: 4 года 3 месяца
Возраст: 31
Сообщений: 200
Спасибок: 195
Качаем :co_ol: :co_ol: :co_ol: :co_ol:
золото будет обязательно качну,рейтинг у меня маленький :-ok-:
Не в сети
Профиль  
 Добавлено: 2013-01-11 20:15 (спустя 44 минуты)
Руководитель релиз-группы
Аватара пользователя
Стаж: 7 лет 4 месяца
Возраст: 31
Сообщений: 3407
Спасибок: 46728
Лайков: 5
# Сомнительно
за битрейт
BergoVic
золото здесь
Не в сети
Профиль  
 Добавлено: 2013-01-13 16:21 (спустя 1 день 20 часов)
Стаж: 7 лет 3 месяца
Сообщений: 1
:bra_vo: :bra_vo: :bra_vo: :bra_vo: :bra_vo: :bra_vo: :bra_vo: :bra_vo: :bra_vo: :bra_vo: :bra_vo:
Не в сети
Профиль  
Начать новую темуОтветить на тему  [ Сообщений: 4 ] 
Вы не можете начинать темы
Вы не можете отвечать на сообщения
Вы не можете редактировать свои сообщения
Вы не можете удалять свои сообщения