Правила форума

  • В этом разделе создание новых тем Запрещено.
  • Для создания новых тем пользуйтесь Корневым разделом DVD и HD фильмы.
Начать новую темуОтветить на тему  [ Сообщений: 4 ] 
Торрент файл
Размер: 20.63 GB • Зарегистрирован: 3 года 6 месяцев • Статус: Проверено
Скачан: 127 раз • Желающих скачать: 0 • Поблагодарили: 42 раза
 Раздают: 0  |  0 KB/s  ]   Качают: 0  |  0 KB/s  ] 
 Полного источника не было 16 дней 
Сообщения
 Добавлено: 2013-05-23 17:12
Top-releaser
Аватара пользователя
Стаж: 8 лет 9 месяцев
Сообщений: 479
Спасибок: 20190
Лайков: 16
Изображение

Крепкий орешек: Хороший день, чтобы умереть

A Good Day to Die Hard


«Яблоко от яблони»

Год выпуска: 2013
Страна: Изображение США; Изображение 20th Century Fox Film Corporation
Жанр: Боевик, триллер, криминал
Продолжительность: 01:41:11
Перевод: Профессиональный (Дублированный) , Оригинал
Субтитры: Английские

Режиссёр: Джон Мур / John Moore

В ролях: Брюс Уиллис, Джей Кортни, Себастьян Кох, Юлия Снигирь, Радивойе Буквич, Сергей Колесников, Мэри Элизабет Уинстэд, Коул Хаузер, Амори Ноласко, Роман Лукнар, Павел Лучникофф, Мэгалин Эчиканвоке, Мелисса Тэнг, Рико Симонини, Катрин Кресг, Эйприл Грэйс, Купер Торнтон

Описание: Джон МакКлейн прибывает в Москву, чтобы вызволить из тюрьмы своего непредсказуемого сына, но холодная голова и железные мускулы вязнут в паутине российской действительности. Дело, в которое влип МакКлейн-младший, оказывается настолько «опасной трясиной», что отцу и сыну, чтобы выжить и в очередной раз спасти мир, приходится объединить свои усилия, забыв прежние, казалось бы, непреодолимые разногласия.


Качество: Blu-Ray Remux 1080p
Формат: MKV

Видео: AVC, 1920 x 1080 (1.778) at 23.976 fps, 29,2 Мбит/сек

Аудио 1: AC3, 6 ch, 384 Кбит/с, 48 KHz [Дубляж]
Аудио 2: DTS-HD MA, 8 ch, 5760 Кбит/с [Oригинал]
Аудио 3: AC3, 2 ch, 224 Кбит/с, 48 KHz [Commentary]
Раздача: Изображение

Изображение

Изображение
MediaInfo

Общее
Уникальный идентификатор : 205534130473689339251630788149036581374 (0x9AA06F0382344283BC3AD55D25C601FE)
Полное имя : C:\Users\Домашний\Desktop\A.Good.Day.to.Die.Hard.2013.BDRemux.1080p.EXTENDED.[nntt].mkv
Формат : Matroska
Версия формата : Version 2
Размер файла : 20,6 Гбайт
Продолжительность : 1 ч. 41 м.
Режим общего битрейта : Переменный
Общий поток : 29,2 Мбит/сек
Дата кодирования : UTC 2013-05-23 07:00:48
Программа кодирования : mkvmerge v5.2.0 ('I can't explain') built on Dec 18 2011 18:12:03
Библиотека кодирования : libebml v1.2.3 + libmatroska v1.3.0

Видео
Идентификатор : 1
Формат : AVC
Формат/Информация : Advanced Video Codec
Профиль формата : High@L4.1
Параметр CABAC формата : Да
Параметр ReFrames формата : 4 кадра
Идентификатор кодека : V_MPEG4/ISO/AVC
Продолжительность : 1 ч. 41 м.
Вид битрейта : Переменный
Максимальный битрейт : 34,0 Мбит/сек
Ширина : 1920 пикселей
Высота : 1080 пикселей
Соотношение сторон : 16:9
Режим частоты кадров : Постоянный
Частота кадров : 23,976 кадра/сек
Цветовое пространство : YUV
Субдискретизация насыщенности : 4:2:0
Битовая глубина : 8 бит
Тип развёртки : Прогрессивная
Язык : English
Default : Да
Forced : Нет

Аудио #1
Идентификатор : 2
Формат : AC-3
Формат/Информация : Audio Coding 3
Расширение режима : CM (complete main)
Параметр Endianness формата : Big
Идентификатор кодека : A_AC3
Продолжительность : 1 ч. 41 м.
Вид битрейта : Постоянный
Битрейт : 384 Кбит/сек
Каналы : 6 каналов
Расположение каналов : Front: L C R, Side: L R, LFE
Частота : 48,0 КГц
Битовая глубина : 16 бит
Метод сжатия : С потерями
Размер потока : 278 Мбайт (1%)
Заголовок : DUB
Язык : Russian
Default : Да
Forced : Нет

Аудио #2
Идентификатор : 3
Формат : DTS
Формат/Информация : Digital Theater Systems
Профиль формата : MA / Core
Режим : 16
Параметр Endianness формата : Big
Идентификатор кодека : A_DTS
Продолжительность : 1 ч. 41 м.
Вид битрейта : Переменный
Битрейт : Неизвестно / 1509 Кбит/сек
Каналы : 8 каналов / 6 каналов
Расположение каналов : Front: L C R, Side: L R, Back: L R, LFE / Front: L C R, Side: L R, LFE
Частота : 48,0 КГц
Битовая глубина : 24 бит
Метод сжатия : Без потерь / Lossy
Заголовок : Lossless
Язык : English
Default : Нет
Forced : Нет

Аудио #3
Идентификатор : 4
Формат : AC-3
Формат/Информация : Audio Coding 3
Расширение режима : CM (complete main)
Параметр Endianness формата : Big
Идентификатор кодека : A_AC3
Продолжительность : 1 ч. 41 м.
Вид битрейта : Постоянный
Битрейт : 224 Кбит/сек
Каналы : 2 канала
Расположение каналов : Front: L R
Частота : 48,0 КГц
Битовая глубина : 16 бит
Метод сжатия : С потерями
Размер потока : 162 Мбайт (1%)
Заголовок : Commentary
Язык : English
Default : Нет
Forced : Нет

Текст #1
Идентификатор : 5
Формат : PGS
Режим смешивания : zlib
Идентификатор кодека : S_HDMV/PGS
Идентификатор кодека/Информация : The same subtitle format used on BDs/HD-DVDs
Заголовок : Forced
Язык : English
Default : Нет
Forced : Нет

Текст #2
Идентификатор : 6
Формат : PGS
Режим смешивания : zlib
Идентификатор кодека : S_HDMV/PGS
Идентификатор кодека/Информация : The same subtitle format used on BDs/HD-DVDs
Заголовок : SDH
Язык : English
Default : Нет
Forced : Нет

Текст #3
Идентификатор : 7
Формат : PGS
Режим смешивания : zlib
Идентификатор кодека : S_HDMV/PGS
Идентификатор кодека/Информация : The same subtitle format used on BDs/HD-DVDs
Заголовок : Commentary
Язык : English
Default : Нет
Forced : Нет

Меню
00:00:00.000 : en:Chapter 00
00:02:45.999 : en:Chapter 01
00:05:02.135 : en:Chapter 02
00:09:36.242 : en:Chapter 03
00:12:13.899 : en:Chapter 04
00:15:25.549 : en:Chapter 05
00:18:02.998 : en:Chapter 06
00:22:31.349 : en:Chapter 07
00:28:31.376 : en:Chapter 08
00:32:28.863 : en:Chapter 09
00:36:05.913 : en:Chapter 10
00:39:53.641 : en:Chapter 11
00:42:20.621 : en:Chapter 12
00:46:04.720 : en:Chapter 13
00:50:30.986 : en:Chapter 14
00:53:21.656 : en:Chapter 15
00:57:05.546 : en:Chapter 16
01:01:46.619 : en:Chapter 17
01:05:03.649 : en:Chapter 18
01:10:24.052 : en:Chapter 19
01:14:04.981 : en:Chapter 20
01:17:50.415 : en:Chapter 21
01:20:18.021 : en:Chapter 22
01:24:05.832 : en:Chapter 23
01:26:17.922 : en:Chapter 24
01:28:05.488 : en:Chapter 25
01:32:37.802 : en:Chapter 26
01:35:24.927 : en:Chapter 27


Свернуть
Скриншоты

Изображение
Изображение
Изображение
Изображение
Изображение
Свернуть
_________________
Изображение
Изображение
Не в сети
Профиль  
 Добавлено: 2013-06-08 13:09 (спустя 15 дней)
Аватара пользователя
Стаж: 7 лет 11 месяцев
Сообщений: 1
У меня на компе и на плеере , тормозит.
Не в сети
Профиль  
 Добавлено: 2013-06-26 17:37 (спустя 18 дней)
Стаж: 6 лет 8 месяцев
Возраст: 34
Сообщений: 18
Под столом от номеров машин, особенно с мягким знаком ;;-))) . Кстати, сразу видно, какие моменты вживую снимали.
P.S. Тормозов на плеере нет, а на компе - нет монитора HD, не запускал даже.
Не в сети
Профиль  
 Добавлено: 2013-12-29 22:59 (спустя 6 месяцев)
Стаж: 8 лет 1 месяц
Сообщений: 210
Спасибок: 1
Лайков: 3
кинокомедия,давно так не ржал!!!
Не в сети
Профиль  
Начать новую темуОтветить на тему  [ Сообщений: 4 ] 
Вы не можете начинать темы
Вы не можете отвечать на сообщения
Вы не можете редактировать свои сообщения
Вы не можете удалять свои сообщения