Правила форума

  • В этом разделе создание новых тем Запрещено.
  • Для создания новых тем пользуйтесь Корневым разделом DVD и HD фильмы.
Начать новую темуОтветить на тему  [ Сообщений: 6 ] 
Торрент файл
Размер: 13.38 GB • Зарегистрирован: 3 года 6 месяцев • Статус: Проверено
Скачан: 649 раз • Желающих скачать: 0 • Поблагодарили: 160 раз
 Раздают: 0  |  0 KB/s  ]   Качают: 0  |  0 KB/s  ] 
 Полного источника не было 11 часов 
Сообщения
 Добавлено: 2013-05-25 10:25
Руководитель релиз-группы
Аватара пользователя
Стаж: 7 лет 4 месяца
Возраст: 31
Сообщений: 3407
Спасибок: 46729
Лайков: 5
Изображение

Крепкий орешек: Хороший день, чтобы умереть
A Good Day to Die Hard


Год выпуска: 2013
Страна: США
Слоган: «Яблоко от яблони»
Жанр: боевик, триллер, криминалслова
Продолжительность: 01:41:11
Перевод: Профессиональный (полное дублирование) [лицензия]
Режиссер: Джон Мур
Сценарий: Скип Вудс, Родерик Торп
Продюсер: Вик Годфри, Алекс Янг, Стивен Дж. Идс, Том Карновски, Джейсон Келлер
Оператор: Джонатан Села
Композитор: Марко Белтрами
В ролях: Брюс Уиллис, Джай Кортни, Себастьян Кох, Юлия Снигирь, Радивойе Буквич, Сергей Колесников, Мэри Элизабет Уинстэд, Коул Хаузер, Амори Ноласко, Роман Лукнар, Золи Ганкста, Петер Такаци
Бюджет: $92 000 000
Сборы в США: $67 349 198
Сборы в России: $12 202 808
Сборы в мире: $304 249 198
Описание: Джон МакКлейн прибывает в Москву, чтобы вызволить из тюрьмы своего непредсказуемого сына, но холодная голова и железные мускулы вязнут в паутине российской действительности. Дело, в которое влип МакКлейн-младший, оказывается настолько «опасной трясиной», что отцу и сыну, чтобы выжить и в очередной раз спасти мир, приходится объединить свои усилия, забыв прежние, казалось бы, непреодолимые разногласия.
Изображение
MPAA: Изображение
Мировая премьера: 7 февраля 2013
Релиз на DVD: 6 июня 2013, «Двадцатый Век Фокс СНГ»
Релиз на Blu-ray: 6 июня 2013, «Двадцатый Век Фокс СНГ»
Релиз: Изображение Раздача группы: Изображение
Качество: BDRip, 1080p
Формат: MKV
Видео: AVC; 1920x1040 (16:9); 15477 Kbps; 23,976 fps; 0,323 bit/pixel
Аудио №1: DTS; 1510 Kbps; CBR; 6 ch; 24 bit Russian
Аудио №2: DTS; 1510 Kbps; CBR; 6 ch; 24 bit English
Аудио №3: AC3; 64 Kbps; CBR; 2 ch English |Commentary with Director John Moore|
Субтитры: английские, французские, испанские
mediainfo
Формат : Matroska

Версия формата : Version 2

Размер файла : 13,4 Гбайт

Продолжительность : 1 ч. 41 м.

Общий поток : 18,9 Мбит/сек

Название фильма : BLUEBIRD

Дата кодирования : UTC 2013-05-24 14:24:33

Программа кодирования : mkvmerge v5.8.0 ('No Sleep / Pillow') built on Sep 2 2012 15:37:04

Библиотека кодирования : libebml v1.2.3 + libmatroska v1.3.0



Видео

Идентификатор : 1

Формат : AVC

Формат/Информация : Advanced Video Codec

Профиль формата : High@L4.1

Параметр CABAC формата : Да

Параметр ReFrames формата : 4 кадра

Идентификатор кодека : V_MPEG4/ISO/AVC

Продолжительность : 1 ч. 41 м.

Битрейт : 15,9 Мбит/сек

Ширина : 1920 пикселей

Высота : 1040 пикселей

Соотношение сторон : 1,85:1

Частота кадров : 23,976 кадра/сек

Цветовое пространство : YUV

Субдискретизация насыщенности : 4:2:0

Битовая глубина : 8 бит

Тип развёртки : Прогрессивная

Бит/(Пиксели*Кадры) : 0.331

Размер потока : 10,9 Гбайт (82%)

Библиотека кодирования : x264 core 132 r2323+704+51 d571b1c tMod [8-bit@4:2:0 X86_64]

Настройки программы : cabac=1 / ref=4 / deblock=1:-3:-3 / analyse=0x3:0x113 / me=umh / subme=11 / psy=1 / fade_compensate=0.00 / psy_rd=0.80:0.00 / mixed_ref=1 / me_range=32 / chroma_me=1 / trellis=2 / 8x8dct=1 / cqm=0 / deadzone=21,11 / fast_pskip=0 / chroma_qp_offset=-2 / threads=18 / lookahead_threads=3 / sliced_threads=0 / nr=0 / decimate=0 / interlaced=0 / bluray_compat=0 / constrained_intra=0 / fgo=0 / bframes=8 / b_pyramid=2 / b_adapt=2 / b_bias=0 / direct=3 / weightb=1 / open_gop=0 / weightp=2 / keyint=240 / keyint_min=24 / scenecut=40 / intra_refresh=0 / rc_lookahead=120 / rc=2pass / mbtree=1 / bitrate=15860 / ratetol=1.0 / qcomp=0.70 / qpmin=0 / qpmax=69 / qpstep=4 / cplxblur=20.0 / qblur=0.5 / ip_ratio=1.10 / aq=4:0.70 / aq-sensitivity=10.00 / aq-factor=1.00:1.00:1.00 / aq2=0 / aq3=0

Язык : English

Default : Да

Forced : Нет



Аудио #1

Идентификатор : 2

Формат : DTS

Формат/Информация : Digital Theater Systems

Идентификатор кодека : A_DTS

Продолжительность : 1 ч. 41 м.

Вид битрейта : Постоянный

Битрейт : 1510 Кбит/сек

Каналы : 6 каналов

Расположение каналов : Front: L C R, Side: L R, LFE

Частота : 48,0 КГц

Битовая глубина : 24 бит

Метод сжатия : С потерями

Размер потока : 1,07 Гбайт (8%)

Язык : Russian

Default : Да

Forced : Нет



Аудио #2

Идентификатор : 3

Формат : DTS

Формат/Информация : Digital Theater Systems

Профиль формата : ES

Идентификатор кодека : A_DTS

Продолжительность : 1 ч. 41 м.

Вид битрейта : Постоянный

Битрейт : 1510 Кбит/сек

Каналы : 6 каналов

Расположение каналов : Front: L C R, Side: L R, LFE

Частота : 48,0 КГц

Битовая глубина : 24 бит

Метод сжатия : С потерями

Размер потока : 1,07 Гбайт (8%)

Язык : English

Default : Нет

Forced : Нет



Аудио #3

Идентификатор : 4

Формат : AC-3

Формат/Информация : Audio Coding 3

Расширение режима : CM (complete main)

Параметр Endianness формата : Big

Идентификатор кодека : A_AC3

Продолжительность : 1 ч. 41 м.

Вид битрейта : Постоянный

Битрейт : 64,0 Кбит/сек

Каналы : 2 канала

Расположение каналов : Front: L R

Частота : 48,0 КГц

Битовая глубина : 16 бит

Метод сжатия : С потерями

Размер потока : 46,3 Мбайт (0%)

Заголовок : Commentary with Director John Moore and first AD, Mark Cotone

Язык : English

Default : Нет

Forced : Нет



Текст #1

Идентификатор : 5

Формат : UTF-8

Идентификатор кодека : S_TEXT/UTF8

Идентификатор кодека/Информация : UTF-8 Plain Text

Заголовок : Force

Язык : English

Default : Нет

Forced : Нет



Текст #2

Идентификатор : 6

Формат : UTF-8

Идентификатор кодека : S_TEXT/UTF8

Идентификатор кодека/Информация : UTF-8 Plain Text

Заголовок : SDH

Язык : English

Default : Нет

Forced : Нет



Текст #3

Идентификатор : 7

Формат : UTF-8

Идентификатор кодека : S_TEXT/UTF8

Идентификатор кодека/Информация : UTF-8 Plain Text

Заголовок : Commentary

Default : Нет

Forced : Нет



Текст #4

Идентификатор : 8

Формат : UTF-8

Идентификатор кодека : S_TEXT/UTF8

Идентификатор кодека/Информация : UTF-8 Plain Text

Заголовок : Force

Язык : French

Default : Нет

Forced : Нет



Текст #5

Идентификатор : 9

Формат : UTF-8

Идентификатор кодека : S_TEXT/UTF8

Идентификатор кодека/Информация : UTF-8 Plain Text

Язык : Spanish

Default : Нет

Forced : Нет



Меню

00:00:00.000 : en:00:00:00.000

00:02:45.999 : en:00:02:45.999

00:05:02.135 : en:00:05:02.135

00:09:36.242 : en:00:09:36.242

00:12:13.900 : en:00:12:13.900

00:15:25.550 : en:00:15:25.550

00:18:02.999 : en:00:18:02.999

00:22:31.350 : en:00:22:31.350

00:28:31.376 : en:00:28:31.376

00:32:28.863 : en:00:32:28.863

00:36:05.914 : en:00:36:05.914

00:39:53.641 : en:00:39:53.641

00:42:20.621 : en:00:42:20.621

00:46:04.720 : en:00:46:04.720

00:50:30.986 : en:00:50:30.986

00:53:21.657 : en:00:53:21.657

00:57:05.547 : en:00:57:05.547

01:01:46.619 : en:01:01:46.619

01:05:03.650 : en:01:05:03.650

01:10:24.053 : en:01:10:24.053

01:14:04.982 : en:01:14:04.982

01:17:50.416 : en:01:17:50.416

01:20:18.021 : en:01:20:18.021

01:24:05.832 : en:01:24:05.832

01:26:17.923 : en:01:26:17.923

01:28:05.488 : en:01:28:05.488

01:32:37.802 : en:01:32:37.802

01:35:24.927 : en:01:35:24.927
Свернуть
"Знаете ли Вы, что..."
  • На роль Джека МакКлейна, сына Джона МакКлейна, рассматривались Пол Уокер, Лиам Хемсворт, Аарон Пол, Бен Фостер, Пол Дано, Шайло Фернандез, Джеймс Бэдж Дэйл, Майло Вентимилья, Стивен Р. МакКуин и Д. Дж. Котрона. В итоге эта роль досталась Джею Кортни.
  • Это второе появление Элдис Ходж в серии фильмов «Крепкий орешек». В первый раз он снимался в фильме «Крепкий орешек 3: Возмездие» (1995), где сыграл одного из племянников Зевса.
  • Брюс Уиллис открыто заявил, что он хотел бы вернуть Бонни Беделиа в «Крепкий орешек». Она играла Холли МакКлейн, жену Джона МакКлейна, в первых двух фильмах серии, но не появлялась в двух последних.
  • Первый фильм серии «Крепкий орешек», который будет показан в форматном соотношении 1,85:1, а также первый из серии фильм, снятый на пленку Fuji.
  • Брюс Уиллис - единственный актер, который снялся во всех пяти фильмах серии «Крепкий орешек».
  • Первый фильм серии, который будет выпущен в формате IMAX.
  • Это первый фильм в серии, снятый как продолжение предыдущего после выхода второй части. Мэри Элизабет Уинстэд повторила в нем свою роль Люси МакКлейн из фильма «Крепкий орешек 4,0» (2007). Помимо Уинстэд и Брюса Уиллиса, единственными актерами, появлявшимися более чем в одном фильме серии, являются Реджинальд ВелДжонсон, Уильям Этертон и Бонни Беделиа (при этом все они снимались в первых двух частях).
  • Съемки стрельбы с вертолета Ми-24 проходили на военном стрельбище, где майор Питер Саймон (Peter Simon), командующий воздушными операциями на базе ВВС в Сольноке, Венгрия, стрелял из автоматических пушек типа GS-30-2k (30 мм) и ракетами S-8 (80 мм). Чтобы добиться максимально реалистичного эффекта, использовались боевые патроны. Фон и цели были наложены уже во время постпродакшна.
  • Шестиколесный грузовик Force Protection Cougar HEV, использованный во время сцены погони, управлялся известным венгерским рэпером и барабанщиком по имени Золи Ганкста (настоящее имя - Zolan Zana), также известного своими огромными татуировками.
  • В фильме использовалось четыре копии бронированного грузовика Cougar HEV. Три из них были созданы специалистами команды Szalay, и их построили на основе военных остатков - шестиколесных грузовиков ЗИЛ-131, оснастив их двигателями от «Урала». Четвертая копия, которая использовалась для трюков с прыжками, была сделана в США и оснащена двигателем V10 Dodge Viper.
  • На роль сына МакКлейна пробовался актёр театра Даниил Певцов.
Свернуть
Скриншоты

Изображение

Изображение

Изображение

Изображение
Свернуть
Не в сети
Профиль  
 Добавлено: 2013-05-25 22:04 (спустя 11 часов)
Аватара пользователя
Стаж: 8 лет 9 месяцев
Сообщений: 1170
Спасибок: 1294
Лайков: 7
долгожданный Брюс! забираю
Не в сети
Профиль  
 Добавлено: 2013-05-26 12:04 (спустя 14 часов)
Стаж: 8 лет 11 месяцев
Сообщений: 44
Спасибок: 2
Лайков: 1
рейтинг говорит сам за себя
Не в сети
Профиль  
 Добавлено: 2013-06-24 11:14 (спустя 28 дней)
Аватара пользователя
Стаж: 8 лет
Сообщений: 140
Спасибок: 51
спасибо тыкнул
_________________
Изображение 6 мB/s Изображение 600 kB/s
Изображение
Не в сети
Профиль  
 Добавлено: 2013-06-24 11:55 (спустя 41 минута)
Стаж: 4 года 11 месяцев
Сообщений: 12
спасибо :ya_hoo_oo: :co_ol:
Не в сети
Профиль  
 Добавлено: 2013-09-15 19:25 (спустя 2 месяца 21 день)
Аватара пользователя
Стаж: 3 года 11 месяцев
Возраст: 26
Сообщений: 26
класс, спасибо, кстати фильм очень даже ничего
Не в сети
Профиль  
Начать новую темуОтветить на тему  [ Сообщений: 6 ] 
Вы не можете начинать темы
Вы не можете отвечать на сообщения
Вы не можете редактировать свои сообщения
Вы не можете удалять свои сообщения