Правила форума

  • В этом разделе создание новых тем Запрещено.
  • Для создания новых тем пользуйтесь Корневым разделом DVD и HD фильмы.
Начать новую темуОтветить на тему  [ Сообщений: 3 ] 
Торрент файл
Размер: 9.1 GB • Зарегистрирован: 5 лет 1 месяц • Статус: Проверено
Скачан: 60 раз • Желающих скачать: 0 • Поблагодарили: 10 раз
 Раздают: 0  |  0 KB/s  ]   Качают: 0  |  0 KB/s  ] 
 Полного источника не было 2 года 8 месяцев 
Сообщения
 Добавлено: 2011-10-26 05:39
Top-releaser
Аватара пользователя
Стаж: 8 лет 7 месяцев
Сообщений: 1286
Спасибок: 3421
Лайков: 7
Крик 4 / Scream 4


«Какой твой любимый ужастик?»

Изображение
Год выпуска: 2011
Страна: США
Жанр: ужасы, триллер, детектив
Продолжительность: 01:50:39
Перевод: Профессиональный (полное дублирование)

Режиссер: Уэс Крэйвен
Сценарий: Кевин Уильямсон
Продюсер: Уэс Крэйвен, Ия Лабунка, Кевин Уильямсон, Карли Фейнголд, Эрен Крюгер
Оператор: Питер Диминг
Композитор: Марко Белтрами

В ролях: Нив Кэмпбелл (Sidney Prescott), Дэвид Аркетт (Dewey Riley), Кортни Кокс (Gale Weathers-Riley), Эмма Робертс (Jill Roberts), Рори Калкин (Charlie Walker), Хайден Панеттьери (Kirby Reed), Эрик Кнудсен (Robbie Mercer), Адам Броди (Deputy Hoss), Мэри МакДоннелл (Kate Roberts), Энтони Андерсон (Deputy Perkins), Анна Пэкуин (Rachel Milles), Хэзер Грэм (Casey)
Дублёры: Татьяна Весёлкина (Sidney Prescott), Василий Дахненко (Dewey Riley), Людмила Шувалова (Gale Weathers-Riley), Мария Иващенко (Jill Roberts), Антон Колесников (Charlie Walker), Вероника Саркисова (Kirby Reed), Прохор Чеховской (Robbie Mercer), Диомид Виноградов (Deputy Perkins), Татьяна Шитова (Rachel Milles), Иван Жарков (Trevor Sheldon), Наталья Грачева (Chloe Garrett), Мария Овчинникова (Sherrie Marconi)

Описание: Сидни Прескотт последние несколько лет провела в относительной тишине и покое. Жизнь потихоньку налаживается, вдали от вспышек и видеокамер папарацци. Но когда находят труп одного из студентов, мир Сидни Прескотт вновь начинает рушиться. Всему виной возродившийся убийца в маске «Лицо Призрака».

Релиз: Изображение Раздача: Изображение

Изображение
Изображение

Бюджет: $40 000 000
Сборы в США: $38 180 928
Сборы в России: $4 116 546
Сборы в мире: $97 037 610
Мировая премьера: 11 апреля 2011
Релиз на DVD: 27 октября 2011, «Новый Диск»
Качество: BDRip
Формат: Matroska
Видео: AVC; 1920x800 (2.40:1); 9576 kbps; 24 fps; 0,260 bit/pixel
Аудио №1: Russian; AC3; 448 kbps; CBR; 6 channels; 16 bit
Аудио №2: English; DTS; 1509 kbps; CBR; 6 channels; 24 bit

Субтитры №1: English
Субтитры №2: English

MediaInfo
Общее
Уникальный идентификатор : 186665241367144175460586713560906866278 (0x8C6E6AF4737114858450A70F65D21E66)
Полное имя : C:\Видео\Scream.4.2011.D.BDRip.1080p.[uniongang.tv].mkv
Формат : Matroska
Версия формата : Version 2
Размер файла : 9,10 Гбайт
Продолжительность : 1 ч. 50 м.
Общий поток : 11,8 Мбит/сек
Название фильма : uniongang.tv
Дата кодирования : UTC 2011-10-25 17:10:11
Программа кодирования : mkvmerge v3.4.0 ('Rapunzel') сборка от May 15 2010 09:38:20
Библиотека кодирования : libebml v0.8.0 + libmatroska v0.9.0

Видео
Идентификатор : 1
Формат : AVC
Формат/Информация : Advanced Video Codec
Профиль формата : High@L4.1
Параметр CABAC формата : Да
Параметр ReFrames формата : 5 кадров
Идентификатор кодека : V_MPEG4/ISO/AVC
Продолжительность : 1 ч. 50 м.
Битрейт : 9577 Кбит/сек
Ширина : 1920 пикс.
Высота : 800 пикс.
Соотношение сторон : 2,40:1
Частота кадров : 24,000 кадр/сек
Цветовое пространство : YUV
Подвыборка цветности : 4:2:0
Битовая глубина : 8 бит
Тип развёртки : Прогрессивная
Бит/(Пиксели*Кадры) : 0.260
Размер потока : 7,40 Гбайт (81%)
Заголовок : Scream 4 2011 1080p BluRay DTS x264-CRiSC
Библиотека кодирования : x264 core 116 r2057 0ba8a9c
Настройки программы : cabac=1 / ref=5 / deblock=1:-3:-3 / analyse=0x3:0x133 / me=umh / subme=11 / psy=1 / psy_rd=0.90:0.00 / mixed_ref=1 / me_range=64 / chroma_me=1 / trellis=2 / 8x8dct=1 / cqm=0 / deadzone=21,11 / fast_pskip=0 / chroma_qp_offset=-2 / threads=12 / sliced_threads=0 / nr=0 / decimate=0 / interlaced=0 / bluray_compat=0 / constrained_intra=0 / bframes=6 / b_pyramid=2 / b_adapt=2 / b_bias=0 / direct=1 / weightb=1 / open_gop=0 / weightp=2 / keyint=250 / keyint_min=24 / scenecut=40 / intra_refresh=0 / rc_lookahead=40 / rc=crf / mbtree=0 / crf=18.0 / qcomp=0.60 / qpmin=0 / qpmax=69 / qpstep=4 / vbv_maxrate=50000 / vbv_bufsize=62500 / crf_max=0.0 / nal_hrd=none / ip_ratio=1.40 / pb_ratio=1.30 / aq=1:0.70
Язык : English
Основные цвета : BT.709-5, BT.1361, IEC 61966-2-4, SMPTE RP177
Характеристики трансфера : BT.709-5, BT.1361
Коэффициенты матрицы : BT.709-5, BT.1361, IEC 61966-2-4 709, SMPTE RP177

Аудио #1
Идентификатор : 2
Формат : AC-3
Формат/Информация : Audio Coding 3
Расширение режима : CM (complete main)
Идентификатор кодека : A_AC3
Продолжительность : 1 ч. 50 м.
Вид битрейта : Постоянный
Битрейт : 448 Кбит/сек
Каналы : 6 каналов
Расположение каналов : Front: L C R, Side: L R, LFE
Частота : 48,0 КГц
Битовая глубина : 16 бит
Метод сжатия : С потерями
Размер потока : 355 Мбайт (4%)
Заголовок : DUB R5
Язык : Russian

Аудио #2
Идентификатор : 3
Формат : DTS
Формат/Информация : Digital Theater Systems
Идентификатор кодека : A_DTS
Продолжительность : 1 ч. 50 м.
Вид битрейта : Постоянный
Битрейт : 1510 Кбит/сек
Каналы : 6 каналов
Расположение каналов : Front: L C R, Side: L R, LFE
Частота : 48,0 КГц
Битовая глубина : 24 бит
Метод сжатия : С потерями
Размер потока : 1,17 Гбайт (13%)
Заголовок : Original
Язык : English

Текст #1
Идентификатор : 4
Формат : UTF-8
Идентификатор кодека : S_TEXT/UTF8
Идентификатор кодека/Информация : UTF-8 Plain Text
Заголовок : Full
Язык : English

Текст #2
Идентификатор : 5
Формат : UTF-8
Идентификатор кодека : S_TEXT/UTF8
Идентификатор кодека/Информация : UTF-8 Plain Text
Заголовок : SDH
Язык : English

Меню
00:00:00.000 : en:Chapter 01
00:14:56.250 : en:Chapter 02
00:28:39.083 : en:Chapter 03
00:43:43.541 : en:Chapter 04
00:58:40.375 : en:Chapter 05
01:15:49.000 : en:Chapter 06
01:34:09.000 : en:Chapter 07
01:45:39.208 : en:Chapter 08
Свернуть

Скриншоты

Изображение

Изображение

Изображение

Изображение

Свернуть
Не в сети
Профиль  
 Добавлено: 2013-07-11 17:55 (спустя 1 год 8 месяцев)
Модератор
Аватара пользователя
Стаж: 8 лет 10 месяцев
Возраст: 27
Сообщений: 1478
Спасибок: 1768
Лайков: 1
как оыбчно нигде нет рус сабов((
Не в сети
Профиль  
 Добавлено: 2015-08-02 19:38 (спустя 2 года)
Стаж: 1 год 5 месяцев
Сообщений: 2
:ti_pa: :ti_pa: :ti_pa: :ti_pa: :ti_pa: :ti_pa: :ti_pa: :ti_pa: :ti_pa: :ti_pa:
Не в сети
Профиль  
Начать новую темуОтветить на тему  [ Сообщений: 3 ] 
Вы не можете начинать темы
Вы не можете отвечать на сообщения
Вы не можете редактировать свои сообщения
Вы не можете удалять свои сообщения