Правила форума

  • В этом разделе создание новых тем Запрещено.
  • Для создания новых тем пользуйтесь Корневым разделом DVD и HD фильмы.
Начать новую темуОтветить на тему  [ Сообщений: 4 ] 
Торрент файл
Размер: 4.66 GB • Зарегистрирован: 5 лет 5 месяцев • Статус: Проверено
Скачан: 135 раз • Желающих скачать: 0 • Поблагодарили: 31 раз
 Раздают: 0  |  0 KB/s  ]   Качают: 0  |  0 KB/s  ] 
 Полного источника не было 3 года 2 месяца 
Сообщения
 Добавлено: 2011-06-11 10:12
Модератор
Аватара пользователя
Стаж: 7 лет 9 месяцев
Сообщений: 4521
Спасибок: 112864
Лайков: 583
Криминальная фишка от Генри
Henry's Crime

Изображение
Год выпуска: 2010
Страна: США
Жанр: комедия, криминал
Продолжительность: 01:47:45
Перевод: Дублированный [Лицензия]
Cубтитры: русские, английские (UTF-8)
Режиссёр: Малькольм Венвилль

В ролях: Вера Фармига, Киану Ривз, Джуди Грир, Джеймс Каан, Петер Стормаре, Фишер Стивенс, Билл Дьюк, Карри Грэм, Дэнни Хоч, Дэвид Костабайл
Описание: Встречайте Генри — самого унылого парня в Америке. Он сидит в своей будке у дороги, взимая пошлину с проезжающих. Казалось, в его жизни ничто не может измениться. Но однажды сомнительный приятель попросил Генри подождать его у крыльца главного банка в Буффало… В результате — четыре года тюрьмы по ложному обвинению в ограблении. Но пройдет время, и Генри вернется к тому самому банку, чтобы взять свое…
Раздача: Изображение

Изображение 6.2/10 {1 468 votes}
Изображение 7.0/10 (585 голосов)


Качество: BDRip 720p [CHD]
Формат: MKV
Видео: AVC, 1280x534, 23.976 fps, 4 290 Kbps
Аудио #1: Russian: 48 kHz, AC3, 3/2 (L,C,R,l,r) + LFE ch, ~384 kbps avg
Аудио #2: English: 48 kHz, DTS, 3/2 (L,C,R,l,r) + LFE ch, ~1536 kbps avg

Скачать: Сэмпл

MediaInfo
General
 Unique ID : 204749661576505582184586399262791981619 (0x9A0959B5FFBF0066941EE4A413E45A33)
 Complete name : D:\Henry.s.Crime.2011.BDRip.720p.[RG.KINOvNINO].kits.mkv
 Format : Matroska
 File size : 4.66 GiB
 Duration : 1h 47mn
 Overall bit rate : 6 183 Kbps
 Movie name : -Talian-
 Encoded date : UTC 2011-06-10 20:01:37
 Writing application : mkvmerge v3.3.0 ('Language') сборка от May 14 2010 17:11:50
 Writing library : libebml v0.8.0 + libmatroska v0.9.0

Video
 ID : 1
 Format : AVC
 Format/Info : Advanced Video Codec
 Format profile : High@L4.1
 Format settings, CABAC : Yes
 Format settings, ReFrames : 12 frames
 Codec ID : V_MPEG4/ISO/AVC
 Duration : 1h 47mn
 Bit rate : 4 290 Kbps
 Width : 1 280 pixels
 Height : 534 pixels
 Display aspect ratio : 2.35:1
 Frame rate : 23.976 fps
 Color space : YUV
 Chroma subsampling : 4:2:0
 Bit depth : 8 bits
 Scan type : Progressive
 Bits/(Pixel*Frame) : 0.262
 Stream size : 3.14 GiB (67%)
 Title : Henrys.Crime.2011.Blu-ray.720p.DTS.x264-CHD
 Writing library : x264 core 114 r1913 5fd3dce
 Encoding settings : cabac=1 / ref=12 / deblock=1:-3:-3 / analyse=0x3:0x113 / me=umh / subme=9 / psy=1 / psy_rd=1.10:0.15 / mixed_ref=1 / me_range=32 / chroma_me=1 / trellis=2 / 8x8dct=1 / cqm=2 / deadzone=21,11 / fast_pskip=0 / chroma_qp_offset=-2 / threads=12 / sliced_threads=0 / nr=0 / decimate=1 / interlaced=0 / constrained_intra=0 / bframes=6 / b_pyramid=2 / b_adapt=2 / b_bias=0 / direct=3 / weightb=1 / open_gop=0 / weightp=2 / keyint=250 / keyint_min=23 / scenecut=40 / intra_refresh=0 / rc_lookahead=60 / rc=2pass / mbtree=1 / bitrate=4290 / ratetol=1.0 / qcomp=0.60 / qpmin=1 / qpmax=63 / qpstep=4 / cplxblur=20.0 / qblur=0.5 / vbv_maxrate=40000 / vbv_bufsize=30000 / nal_hrd=none / ip_ratio=1.40 / aq=1:0.80
 Language : English

Audio #1
 ID : 2
 Format : AC-3
 Format/Info : Audio Coding 3
 Mode extension : CM (complete main)
 Codec ID : A_AC3
 Duration : 1h 47mn
 Bit rate mode : Constant
 Bit rate : 384 Kbps
 Channel(s) : 6 channels
 Channel positions : Front: L C R, Side: L R, LFE
 Sampling rate : 48.0 KHz
 Bit depth : 16 bits
 Compression mode : Lossy
 Stream size : 296 MiB (6%)
 Title : DUB-R5
 Language : Russian

Audio #2
 ID : 3
 Format : DTS
 Format/Info : Digital Theater Systems
 Codec ID : A_DTS
 Duration : 1h 47mn
 Bit rate mode : Constant
 Bit rate : 1 510 Kbps
 Channel(s) : 6 channels
 Channel positions : Front: L C R, Side: L R, LFE
 Sampling rate : 48.0 KHz
 Bit depth : 24 bits
 Compression mode : Lossy
 Delay relative to video : 22ms
 Stream size : 1.14 GiB (24%)
 Title : Original
 Language : English

Text #1
 ID : 4
 Format : UTF-8
 Codec ID : S_TEXT/UTF8
 Codec ID/Info : UTF-8 Plain Text
 Title : Sub
 Language : Russian

Text #2
 ID : 5
 Format : UTF-8
 Codec ID : S_TEXT/UTF8
 Codec ID/Info : UTF-8 Plain Text
 Title : Sub
 Language : English
Свернуть
Скриншоты
Изображение

Изображение

Изображение
Свернуть
_________________
Изображение
Не в сети
Профиль  
 Добавлено: 2011-06-11 15:13 (спустя 5 часов)
Кинокомментатор
Аватара пользователя
Стаж: 9 лет 1 месяц
Сообщений: 1332
Лайков: 54
качаем-с)
_________________
Я ВКонтакте
Не в сети
Профиль  
 Добавлено: 2011-06-11 18:58 (спустя 3 часа)
Стаж: 7 лет 3 месяца
Возраст: 39
Сообщений: 562
Спасибок: 2645
Лайков: 9
так себе кино мне не очень понравилось


Последний раз редактировалось knyaginino2009 2011-06-24 17:20, всего редактировалось 1 раз.
Не в сети
Профиль  
 Добавлено: 2011-06-11 19:39 (спустя 40 минут)
Кинокомментатор
Аватара пользователя
Стаж: 9 лет 1 месяц
Сообщений: 1332
Лайков: 54
конечно всё понятно) что ограбление лишь ширма:) но всё же было интересно поймают их али нет:) фильмец реально как будто русский:) сложно о простом и про чувства:) но мне понравилось!) хоть и пару раз заскучал)
Ривз по началу канешн вообще у меня шок вызывал) прям не подходил) к концу он начал меня радовать!) 7 фильму!)
_________________
Я ВКонтакте
Не в сети
Профиль  
Начать новую темуОтветить на тему  [ Сообщений: 4 ] 
Вы не можете начинать темы
Вы не можете отвечать на сообщения
Вы не можете редактировать свои сообщения
Вы не можете удалять свои сообщения