Правила форума

  • В этом разделе создание новых тем Запрещено.
  • Для создания новых тем пользуйтесь Корневым разделом DVD и HD фильмы.
Начать новую темуОтветить на тему  [ Сообщений: 2 ] 
Торрент файл
Размер: 8.98 GB • Зарегистрирован: 3 года 8 месяцев • Статус: Проверено
Скачан: 23 раза • Желающих скачать: 0 • Поблагодарили: 12 раз
 Раздают: 0  |  0 KB/s  ]   Качают: 0  |  0 KB/s  ] 
 Полного источника не было 4 месяца 10 дней 
Сообщения
 Добавлено: 2013-03-24 09:54
Руководитель релиз-группы
Аватара пользователя
Стаж: 7 лет 5 месяцев
Возраст: 31
Сообщений: 3406
Спасибок: 46729
Лайков: 5
Изображение

Кристина
Christine


Год выпуска: 1983
Страна: США
Слоган: «She was born bad. Plain and simple. Somewhere deep on a darkened assembly line. Christine. A '58 Plymouth Fury possessed by Hell. She's taken control of her teenage owner, Arnie. Her previous owner is not alive to warn him. And now she's steering straight»
Жанр: ужасы, триллер, драма, детектив
Продолжительность: 01:50:00
Перевод: Профессиональный (многоголосый, закадровый)
Режиссер: Джон Карпентер
Сценарий: Билл Филлипс, Стивен Кинг
Продюсер: Ричард Кобриц, Бэрри Бернарди, Ларри Дж. Франко, Кирби МакКоли, Марк Тарлов
Оператор: Дональд М. Морган
Композитор: Джон Карпентер, Алан Ховарт
В ролях: Кит Гордон, Джон Стокуэлл, Александра Пол, Роберт Проски, Гарри Дин Стэнтон, Кристин Белфорд, Робертс Блоссом, Уильям Острандер, Дэвид Спилберг, Мальколм Дэнар, Стивен Тэш, Стюарт Чарно
Бюджет: $9 700 000
Сборы в США: $21 017 849
Описание: Ее зовут Кристина. Ее классические формы вызывают восхищение. Она соблазняет 17-летнего Арни Каннингэма и делает его своим слугой. У нее нет и не может быть соперниц, ибо она их убивает. Она требует беспрекословного подчинения.
Она... автомобиль! Чтобы сохранить свою жизнь, юноша должен посвятить ее жестокой Кристине. История роскошного красного Плимута 1958 года полна страшных тайн. Все его предыдущие хозяева погибли. И юный Ромео должен стать очередной жертвой ненасытной Джульетты.

Изображение
MPAA: Изображение
Мировая премьера: 9 декабря 1983
Раздача группы: Изображение
Качество: BDRip, 1080p
Формат: MKV
Видео: AVC; 1920x808 (2.35:1); 8594 Kbps; 23,976 fps; 0,231 bit/pixel
Аудио №1: AC3; 192 Kbps; CBR; 2 ch Russian |MVO (Киномания)|
Аудио №2: AC3; 192 Kbps; CBR; 2 ch Russian |DVO (НТВ+)|
Аудио №3: AC3; 192 Kbps; CBR; 2 ch Russian |MVO|
Аудио №4: AC3; 192 Kbps; CBR; 2 ch Russian |Сергей Визгунов|
Аудио №5: AC3; 192 Kbps; CBR; 2 ch Russian |Владимир Штейн|
Аудио №6: AC3; 192 Kbps; CBR; 2 ch Russian |Леонид Володарский|
Аудио №7: DTS; 1510 Kbps; CBR; 6 ch; 24 bit English
Аудио №8: AC3; 192 Kbps; CBR; 2 ch Russian |Комментарии|
Субтитры: русские, английские
mediainfo
Формат : Matroska
Версия формата : Version 2
Размер файла : 8,98 Гбайт
Продолжительность : 1 ч. 50 м.
Общий поток : 11,7 Мбит/сек
Название фильма : |◄◄| ιι |Alexandr 80| ► | ■ |►►|
Дата кодирования : UTC 2013-03-17 01:35:15
Программа кодирования : mkvmerge v4.3.0 ('Escape from the Island') сборка от Sep 5 2010 10:30:51
Библиотека кодирования : libebml v1.0.0 + libmatroska v1.0.0

Видео
Идентификатор : 1
Формат : AVC
Формат/Информация : Advanced Video Codec
Профиль формата : High@L4.1
Параметр CABAC формата : Да
Параметр ReFrames формата : 5 кадров
Идентификатор кодека : V_MPEG4/ISO/AVC
Продолжительность : 1 ч. 50 м.
Битрейт : 8830 Кбит/сек
Ширина : 1920 пикселей
Высота : 808 пикселей
Соотношение сторон : 2,40:1
Частота кадров : 23,976 кадра/сек
Цветовое пространство : YUV
Субдискретизация насыщенности : 4:2:0
Битовая глубина : 8 бит
Тип развёртки : Прогрессивная
Бит/(Пиксели*Кадры) : 0.237
Размер потока : 6,60 Гбайт (74%)
Библиотека кодирования : x264 core 130 r2273 b3065e6
Настройки программы : cabac=1 / ref=5 / deblock=1:-3:-3 / analyse=0x3:0x113 / me=umh / subme=8 / psy=1 / psy_rd=1.00:0.00 / mixed_ref=1 / me_range=16 / chroma_me=1 / trellis=1 / 8x8dct=1 / cqm=0 / deadzone=21,11 / fast_pskip=1 / chroma_qp_offset=-2 / threads=12 / lookahead_threads=2 / sliced_threads=0 / nr=0 / decimate=1 / interlaced=0 / bluray_compat=0 / constrained_intra=0 / bframes=3 / b_pyramid=2 / b_adapt=2 / b_bias=0 / direct=3 / weightb=1 / open_gop=0 / weightp=2 / keyint=240 / keyint_min=24 / scenecut=40 / intra_refresh=0 / rc_lookahead=50 / rc=2pass / mbtree=1 / bitrate=8830 / ratetol=1.0 / qcomp=0.60 / qpmin=0 / qpmax=69 / qpstep=4 / cplxblur=20.0 / qblur=0.5 / ip_ratio=1.40 / aq=1:1.00
Язык : English

Аудио #1
Идентификатор : 2
Формат : AC-3
Формат/Информация : Audio Coding 3
Расширение режима : CM (complete main)
Идентификатор кодека : A_AC3
Продолжительность : 1 ч. 50 м.
Вид битрейта : Постоянный
Битрейт : 192 Кбит/сек
Каналы : 2 канала
Расположение каналов : Front: L R
Частота : 48,0 КГц
Битовая глубина : 16 бит
Метод сжатия : С потерями
Размер потока : 151 Мбайт (2%)
Заголовок : MVO (Киномания)
Язык : Russian

Аудио #2
Идентификатор : 3
Формат : AC-3
Формат/Информация : Audio Coding 3
Расширение режима : CM (complete main)
Идентификатор кодека : A_AC3
Продолжительность : 1 ч. 50 м.
Вид битрейта : Постоянный
Битрейт : 192 Кбит/сек
Каналы : 2 канала
Расположение каналов : Front: L R
Частота : 48,0 КГц
Битовая глубина : 16 бит
Метод сжатия : С потерями
Размер потока : 151 Мбайт (2%)
Заголовок : DVO (HTB+)
Язык : Russian

Аудио #3
Идентификатор : 4
Формат : AC-3
Формат/Информация : Audio Coding 3
Расширение режима : CM (complete main)
Идентификатор кодека : A_AC3
Продолжительность : 1 ч. 50 м.
Вид битрейта : Постоянный
Битрейт : 192 Кбит/сек
Каналы : 2 канала
Расположение каналов : Front: L R
Частота : 48,0 КГц
Битовая глубина : 16 бит
Метод сжатия : С потерями
Размер потока : 151 Мбайт (2%)
Заголовок : MVO
Язык : Russian

Аудио #4
Идентификатор : 5
Формат : AC-3
Формат/Информация : Audio Coding 3
Расширение режима : CM (complete main)
Идентификатор кодека : A_AC3
Продолжительность : 1 ч. 50 м.
Вид битрейта : Постоянный
Битрейт : 192 Кбит/сек
Каналы : 2 канала
Расположение каналов : Front: L R
Частота : 48,0 КГц
Битовая глубина : 16 бит
Метод сжатия : С потерями
Размер потока : 151 Мбайт (2%)
Заголовок : AVO - ВИЗГУНОВ
Язык : Russian

Аудио #5
Идентификатор : 6
Формат : AC-3
Формат/Информация : Audio Coding 3
Расширение режима : CM (complete main)
Идентификатор кодека : A_AC3
Продолжительность : 1 ч. 50 м.
Вид битрейта : Постоянный
Битрейт : 192 Кбит/сек
Каналы : 2 канала
Расположение каналов : Front: L R
Частота : 48,0 КГц
Битовая глубина : 16 бит
Метод сжатия : С потерями
Размер потока : 151 Мбайт (2%)
Заголовок : AVO - ШТЕЙН
Язык : Russian

Аудио #6
Идентификатор : 7
Формат : AC-3
Формат/Информация : Audio Coding 3
Расширение режима : CM (complete main)
Идентификатор кодека : A_AC3
Продолжительность : 1 ч. 50 м.
Вид битрейта : Постоянный
Битрейт : 192 Кбит/сек
Каналы : 2 канала
Расположение каналов : Front: L R
Частота : 48,0 КГц
Битовая глубина : 16 бит
Метод сжатия : С потерями
Размер потока : 151 Мбайт (2%)
Заголовок : AVO - ВОЛОДАРСКИЙ
Язык : Russian

Аудио #7
Идентификатор : 8
Формат : DTS
Формат/Информация : Digital Theater Systems
Идентификатор кодека : A_DTS
Продолжительность : 1 ч. 50 м.
Вид битрейта : Постоянный
Битрейт : 1510 Кбит/сек
Каналы : 6 каналов
Расположение каналов : Front: L C R, Side: L R, LFE
Частота : 48,0 КГц
Битовая глубина : 24 бит
Метод сжатия : С потерями
Задержка видео : 11 мс.
Размер потока : 1,16 Гбайт (13%)
Заголовок : Original
Язык : English

Аудио #8
Идентификатор : 9
Формат : AC-3
Формат/Информация : Audio Coding 3
Расширение режима : CM (complete main)
Идентификатор кодека : A_AC3
Продолжительность : 1 ч. 50 м.
Вид битрейта : Постоянный
Битрейт : 192 Кбит/сек
Каналы : 2 канала
Расположение каналов : Front: L R
Частота : 48,0 КГц
Битовая глубина : 16 бит
Метод сжатия : С потерями
Размер потока : 151 Мбайт (2%)
Заголовок : Russian commentary
Язык : Russian

Текст #1
Идентификатор : 10
Формат : UTF-8
Идентификатор кодека : S_TEXT/UTF8
Идентификатор кодека/Информация : UTF-8 Plain Text
Язык : Russian

Текст #2
Идентификатор : 11
Формат : UTF-8
Идентификатор кодека : S_TEXT/UTF8
Идентификатор кодека/Информация : UTF-8 Plain Text
Язык : English

Меню
00:00:00.000 : en:00:00:00.000
00:10:25.750 : en:00:10:25.750
00:21:55.606 : en:00:21:55.606
00:27:32.401 : en:00:27:32.401
00:37:40.967 : en:00:37:40.967
00:49:11.198 : en:00:49:11.198
00:55:10.390 : en:00:55:10.390
01:01:37.652 : en:01:01:37.652
01:11:36.959 : en:01:11:36.959
01:22:29.153 : en:01:22:29.153
01:32:57.906 : en:01:32:57.906
01:46:23.877 : en:01:46:23.877

Свернуть
"Знаете ли Вы, что..."
  • Книга, которую снимает Дэннис с полки в библиотеке, прежде чем пригласить Лей, называется «Кристина» Стивена Кинга.
  • Для создания эффекта самовосстановления машины, были установлены гидравлические помпы внутри некоторых мест машины-дублера плимута фури. Эти помпы прикреплялись к кузову машины и когда сжимались, то всасывали внутрь части корпуса машины. Всасывание машины внутрь было заснято, а затем прокручено в фильме в обратном направлении, создавая впечатление, что машина спонтанно восстанавливает форму.
  • Популярность Стивена Кинга была такой, что фильм вышел в прокат раньше, чем была опубликована его книга.
  • Одна из дублерных машин плимута, используемая в фильме - которая убивает Мучи - имела ненастоящую переднюю часть. Машина была собрана из частей от аналогичных машин, найденных на свалке. Автомобиль теперь находится в частных руках.
  • Фильм, показываемый в кинотеатре под открытым небом, называется «Thank God It’s Friday» (1978).
  • Главная роль в фильме была предложена Кевину Бэйкону, но тот отказался, в пользу фильма «Footloose» (1984).
  • По книге, Арни получает Кристину от Роланда Д. ЛеБэя, который умирает двумя неделями позже. В фильме, Арни получает ее от его брата - Джорджа ЛеБэя.
  • В книге, труп Роланда ЛеБэя появляется перед Арни несколько раз и дух ЛеБэя овладевает Арни, изменяя его личность. Это показывается позже, когда дух ЛеБэя берет управление машиной, чтобы отомстить безжалостным мучителям. В фильме же отказываются от духа ЛеБэя и показывают, что машина сама по себе является злом. Джон Карпентер указывает, что это упрощает сюжет и, что появление трупа как-то напоминает сцены из фильма «Американский Оборотень в Лондоне», который был выпущен совсем незадолго до выхода «Кристины».
Свернуть
Скриншоты

Изображение

Изображение

Изображение

Изображение

Изображение
Свернуть
Не в сети
Профиль  
 Добавлено: 2013-04-05 14:39 (спустя 12 дней)
Кинокомментатор
Аватара пользователя
Стаж: 8 лет 6 месяцев
Возраст: 39
Сообщений: 1841
Спасибок: 130
Лайков: 4
Советую! Очень интересный фильм! Держит в напряжении, одновременно не лишком напрягая в плане ужасов. Смотрел его очень давно, если не ошибаюсь поздно ночью шёл по Первому каналу.
Не в сети
Профиль  
Начать новую темуОтветить на тему  [ Сообщений: 2 ] 
Вы не можете начинать темы
Вы не можете отвечать на сообщения
Вы не можете редактировать свои сообщения
Вы не можете удалять свои сообщения