Правила форума

  • В этом разделе создание новых тем Запрещено.
  • Для создания новых тем пользуйтесь Корневым разделом DVD и HD фильмы.
Начать новую темуОтветить на тему  [ Сообщений: 3 ] 
Торрент файл
Размер: 4.37 GB • Зарегистрирован: 4 года 1 месяц • Статус: Проверено
Скачан: 22 раза • Желающих скачать: 0 • Поблагодарили: 4 раза
 Раздают: 0  |  0 KB/s  ]   Качают: 0  |  0 KB/s  ] 
 Полного источника не было 10 месяцев 
Сообщения
 Добавлено: 2012-10-11 14:21
Аватара пользователя
Стаж: 8 лет 1 месяц
Возраст: 27
Сообщений: 176
Спасибок: 968
Лайков: 1
Крошка из Беверли-Хиллз 3

Beverly Hills Chihuahua 3: Viva La Fiesta!


Изображение

Год выпуска: 2012
Страна: США
Жанр: комедия, семейный
Продолжительность: 01:29:04
Перевод: Профессиональный (полное дублирование) [Лицензия]


Режиссёр: Лев Л. Спиро
Сценарист: Dana Starfield, Джеффри Бушнелл
Продюсер: Сара Е. Уайт

В ролях: Одетт Эннэйбл, Эшли Боеттчер, Garen Boyajian, Джейсон Брукс, Джейк Бьюзи, Эрин Кехилл, Маркус Колома, Джон Колтон, Джон Брент Керри, Ник Эверсман
Описание: Когда Папи с сопровождающей его компанией перебираются в роскошный отель, то его самый юный щенок по кличке Роза чувствует себя заброшенным, и Папи должен сделать все, чтобы доказать, что этот щенок очень важен для него
.

Рейтинг MPAA: Рейтинг G (Фильм демонстрируется без ограничений)
Мировая премьера: 3 сентября 2012


Изображение


Раздача группы: Изображение


Качество: BDRip [1080p]
Видео: 1920x1072, 6635 Кбит/сек, 23,976 кадр/сек, AVC, x264, 16:9, 0.134 Бит/[Пиксели*Кадры], 2pass
Аудио: AC-3, 384 Кбит/сек, 6 канала(ов), 48,0 КГц
Размер: 4,37 ГБ
Изображение
Скриншоты
Изображение

Изображение

Изображение

Изображение
Свернуть
MI
Общее
Уникальный идентификатор : 170362000078897990134389981255660090583 (0x802A87198F5DC9DEBDBC9F1322C634D7)
Полное имя : E:ЗагрузкиBeverly.Hills.Chihuahua.3.Viva.La.Fiesta!.2012.x264.BDRip.1080p.DUB.mkv
Формат : Matroska
Версия формата : Version 2
Размер файла : 4,37 Гбайт
Продолжительность : 1 ч. 29 м.
Общий поток : 7006 Кбит/сек
Дата кодирования : UTC 2012-10-08 15:40:46
Программа кодирования : mkvmerge v5.5.0 ('Healer') built on Apr 6 2012 21:43:24
Библиотека кодирования : libebml v1.2.3 + libmatroska v1.3.0

Видео
Идентификатор : 1
Формат : AVC
Формат/Информация : Advanced Video Codec
Профиль формата : High@L4.0
Параметр CABAC формата : Да
Параметр ReFrames формата : 4 кадра
Идентификатор кодека : V_MPEG4/ISO/AVC
Продолжительность : 1 ч. 29 м.
Битрейт : 6635 Кбит/сек
Ширина : 1920 пикселей
Высота : 1072 пикселя
Соотношение сторон : 16:9
Соотношение сторон в оригинале : 16:9
Частота кадров : 23,976 кадра/сек
Цветовое пространство : YUV
Субдискретизация насыщенности : 4:2:0
Битовая глубина : 8 бит
Тип развёртки : Прогрессивная
Бит/(Пиксели*Кадры) : 0.134
Размер потока : 4,04 Гбайт (93%)
Заголовок : Крошка из Беверли-Хиллз 3
Библиотека кодирования : x264 core 128 r2216 198a7ea
Настройки программы : cabac=1 / ref=4 / deblock=1:0:0 / analyse=0x3:0x133 / me=hex / subme=7 / psy=1 / psy_rd=1.00:0.00 / mixed_ref=1 / me_range=16 / chroma_me=1 / trellis=1 / 8x8dct=1 / cqm=0 / deadzone=21,11 / fast_pskip=1 / chroma_qp_offset=-2 / threads=12 / lookahead_threads=2 / sliced_threads=0 / nr=0 / decimate=1 / interlaced=0 / bluray_compat=0 / constrained_intra=0 / bframes=3 / b_pyramid=2 / b_adapt=1 / b_bias=0 / direct=1 / weightb=1 / open_gop=0 / weightp=2 / keyint=240 / keyint_min=23 / scenecut=40 / intra_refresh=0 / rc_lookahead=40 / rc=2pass / mbtree=1 / bitrate=6635 / ratetol=1.0 / qcomp=0.60 / qpmin=10 / qpmax=51 / qpstep=4 / cplxblur=20.0 / qblur=0.5 / ip_ratio=1.40 / aq=1:1.00
Язык : English
Default : Да
Forced : Нет

Аудио
Идентификатор : 2
Формат : AC-3
Формат/Информация : Audio Coding 3
Расширение режима : CM (complete main)
Идентификатор кодека : A_AC3
Продолжительность : 1 ч. 29 м.
Вид битрейта : Постоянный
Битрейт : 384 Кбит/сек
Каналы : 6 каналов
Расположение каналов : Front: L C R, Side: L R, LFE
Частота : 48,0 КГц
Битовая глубина : 16 бит
Метод сжатия : С потерями
Размер потока : 245 Мбайт (5%)
Заголовок : Дубляж
Язык : Russian
Default : Да
Forced : Нет
Свернуть
_________________
Изображение


Последний раз редактировалось fkfroj 2012-10-11 14:50, всего редактировалось 1 раз.
Не в сети
Профиль  
 Добавлено: 2012-10-12 09:21 (спустя 19 часов)
Модератор
Аватара пользователя
Стаж: 6 лет 10 месяцев
Возраст: 33
Сообщений: 5908
Спасибок: 61259
Лайков: 3540
первый скрин - УГ :-D
_________________
ИзображениеИзображение Изображение
Изображение
Не в сети
Профиль  
 Добавлено: 2012-10-12 21:18 (спустя 11 часов)
Аватара пользователя
Стаж: 8 лет 1 месяц
Возраст: 27
Сообщений: 176
Спасибок: 968
Лайков: 1
rotametr
:-D
Не в сети
Профиль  
Начать новую темуОтветить на тему  [ Сообщений: 3 ] 
Вы не можете начинать темы
Вы не можете отвечать на сообщения
Вы не можете редактировать свои сообщения
Вы не можете удалять свои сообщения