Правила форума

  • В этом разделе создание новых тем Запрещено.
  • Для создания новых тем пользуйтесь Корневым разделом DVD и HD фильмы.
Начать новую темуОтветить на тему  [ Сообщений: 2 ] 
Торрент файл
Размер: 4.83 GB • Зарегистрирован: 4 года 3 месяца • Статус: Проверено
Скачан: 17 раз • Желающих скачать: 0 • Поблагодарили: 5 раз
 Раздают: 0  |  0 KB/s  ]   Качают: 0  |  0 KB/s  ] 
 Полного источника не было 2 года 1 месяц 
Сообщения
 Добавлено: 2012-08-08 16:07
Top-seeder
Аватара пользователя
Стаж: 9 лет
Сообщений: 1399
Спасибок: 28651
Лайков: 8
Крошка Молли

Изображение


Перевод: Профессиональный (полное дублирование)
Субтитры: отсутствуют
Формат: BDRip, MKV, H.264, AC3/DTS
Страна: США
Режиссер: Эдуардо Санчес
Жанр: ужасы, триллер, драма
Продолжительность: 01:40:13
Год выпуска: 2011

В ролях: Гретчен Лодж, Джонни Льюис, Александра Холден, Филд Бловелт, Кен Арнольд, Тони Эллис, Лоурен Лакис, Кэти Фостер, Дэниэл Росс, Тодд Райан Джонс.

Описание: После свадьбы Молли Рейнольдс возвращается в свой давно заброшенный фамильный дом, где страшные воспоминания о кошмарах детства начинают просачиваться в ее новую жизнь. Вскоре она начинает погружаться в пучину зла, размывающего границы между психозом и одержимостью демонами…

Видео: 1280x720p (16:9), 23,976 кадра/сек, AVC MPEG-4 (x264), High@L4.1 ~4999 Kbps avg, 0,226 Бит/(Пиксели*Кадры)
Аудио#1: Русский 48 kHz, AC3, 6 ch, 384 kbps avg [Профессиональный (полное дублирование)]
Аудио#2: Английский 48 kHz, DTS, 6 ch, 1510 kbps avg [Оригинал]

Слоган: «Зло возвращается»

MI
Общее
Уникальный идентификатор : 216462942235559811016102683511557595882 (0xA2D93F08F0A102A1A95CE37DD8CE22EA)
Полное имя : D:\Закачки\Крошка Молли.mkv
Формат : Matroska
Размер файла : 4,83 Гбайт
Продолжительность : 1 ч. 40 м.
Общий поток : 6896 Кбит/сек
Дата кодирования : UTC 2012-08-07 04:47:20
Программа кодирования : mkvmerge v5.5.0 ('Healer') built on Apr 6 2012 21:43:24
Библиотека кодирования : libebml v1.2.3 + libmatroska v1.3.0

Видео
Идентификатор : 1
Формат : AVC
Формат/Информация : Advanced Video Codec
Профиль формата : High@L4.1
Параметр CABAC формата : Да
Параметр ReFrames формата : 3 кадра
Идентификатор кодека : V_MPEG4/ISO/AVC
Продолжительность : 1 ч. 40 м.
Вид битрейта : Переменный
Битрейт : 4999 Кбит/сек
Максимальный битрейт : 40,0 Мбит/сек
Ширина : 1280 пикс.
Высота : 720 пикс.
Соотношение сторон : 16:9
Частота кадров : 23,976 кадр/сек
Цветовое пространство : YUV
Подвыборка цветности : 4:2:0
Битовая глубина : 8 бит
Тип развёртки : Прогрессивная
Бит/(Пиксели*Кадры) : 0.226
Размер потока : 3,41 Гбайт (71%)
Библиотека кодирования : x264 core 116 r2074 2641b9e
Настройки программы : cabac=1 / ref=4 / deblock=1:0:0 / analyse=0x3:0x113 / me=hex / subme=7 / psy=1 / psy_rd=1.00:0.00 / mixed_ref=1 / me_range=16 / chroma_me=1 / trellis=1 / 8x8dct=1 / cqm=0 / deadzone=21,11 / fast_pskip=1 / chroma_qp_offset=-2 / threads=3 / sliced_threads=0 / slices=4 / nr=0 / decimate=1 / interlaced=0 / bluray_compat=0 / constrained_intra=0 / bframes=3 / b_pyramid=1 / b_adapt=1 / b_bias=0 / direct=1 / weightb=1 / open_gop=0 / weightp=0 / keyint=24 / keyint_min=2 / scenecut=40 / intra_refresh=0 / rc_lookahead=24 / rc=2pass / mbtree=1 / bitrate=4999 / ratetol=1.0 / qcomp=0.60 / qpmin=10 / qpmax=51 / qpstep=4 / cplxblur=20.0 / qblur=0.5 / vbv_maxrate=40000 / vbv_bufsize=30000 / nal_hrd=vbr / ip_ratio=1.40 / aq=1:1.00
Язык : English

Аудио #1
Идентификатор : 2
Формат : AC-3
Формат/Информация : Audio Coding 3
Расширение режима : CM (complete main)
Идентификатор кодека : A_AC3
Продолжительность : 1 ч. 40 м.
Вид битрейта : Постоянный
Битрейт : 384 Кбит/сек
Каналы : 6 каналов
Расположение каналов : Front: L C R, Side: L R, LFE
Частота : 48,0 КГц
Битовая глубина : 16 бит
Метод сжатия : С потерями
Задержка видео : 2 мс.
Размер потока : 275 Мбайт (6%)
Язык : Russian

Аудио #2
Идентификатор : 3
Формат : DTS
Формат/Информация : Digital Theater Systems
Идентификатор кодека : A_DTS
Продолжительность : 1 ч. 40 м.
Вид битрейта : Постоянный
Битрейт : 1510 Кбит/сек
Каналы : 6 каналов
Расположение каналов : Front: L C R, Side: L R, LFE
Частота : 48,0 КГц
Битовая глубина : 24 бит
Метод сжатия : С потерями
Размер потока : 1,06 Гбайт (22%)
Язык : English

Свернуть

Скриншоты
ИзображениеИзображениеИзображениеИзображениеИзображениеИзображение
Свернуть
Не в сети
Профиль  
 Добавлено: 2012-08-09 08:51 (спустя 16 часов)
Аватара пользователя
Стаж: 5 лет 1 месяц
Возраст: 28
Сообщений: 8
фильм не о чём, муть какая то.... :ps_ih:
Не советую.... :st_op:
Не в сети
Профиль  
Начать новую темуОтветить на тему  [ Сообщений: 2 ] 
Вы не можете начинать темы
Вы не можете отвечать на сообщения
Вы не можете редактировать свои сообщения
Вы не можете удалять свои сообщения