Правила форума

  • В этом разделе создание новых тем Запрещено.
  • Для создания новых тем пользуйтесь Корневым разделом DVD и HD фильмы.
Начать новую темуОтветить на тему  [ Сообщений: 3 ] 
Торрент файл
Размер: 8.9 GB • Зарегистрирован: 3 года 5 месяцев • Статус: Проверено
Скачан: 96 раз • Желающих скачать: 0 • Поблагодарили: 20 раз
 Раздают: 0  |  0 KB/s  ]   Качают: 0  |  0 KB/s  ] 
 Полного источника не было 1 год 8 месяцев 
Сообщения
 Добавлено: 2013-06-17 18:16
Аватара пользователя
Стаж: 9 лет 1 месяц
Сообщений: 7981
Спасибок: 122210
Лайков: 1191
Кровь / Blood

«Забытые преступления не исчезают»

Изображение


Год выпуска: 2012
Страна: Изображение Великобритания
Жанр: триллер, детектив
Продолжительность: 01:32:15
Субтитры: Русские, английские
Перевод: Профессиональный (многоголосый, закадровый) [Лицензия]


Режиссер: Ник Мерфи
Сценарий: Билл Галлахер
Продюсер: Пиппа Харрис, Ник Лоус, Николя Шиндлер
Оператор: Джордж Ричмонд
Композитор: Дэниэл Пембертон

В ролях: Пол Беттани, Стивен Грэм, Марк Стронг, Брайан Кокс, Зои Таппер, Бен Кромптон, Ник Мерфи, Наташа Литтл, Эдриен Эдмондсон, Патрик Херд-Вуд

Описание: Жестоко убита красивая девушка. Есть подозреваемый. Казалось бы, все просто. Но расследование, которое ведут два молодых брата-полицейских, начинает развиваться в совершенно неожиданном направлении. Вместо поиска убийцы и раскрытия преступления, совершенного в настоящем, цепь событий неуклонно уводит братьев в сторону преступлений, совершенных в прошлом. Преступлений, которые должны были оказаться навеки забытыми.

Изображение Изображение

Релиз группы: Изображение Раздача группы: Изображение

Качество: BDRip (1080p)
Формат: Matroska
Видео: MPEG-4 AVC, 12.5 Мбит/с, 1920x818
Аудио №1: Русский (AC3, 48,0 КГц, 6 ch, 384 Кбит/c)
Аудио №2: Английский (AC3, 48,0 КГц, 6 ch, 640 Кбит/c)

MediaInfo
Общее
Уникальный идентификатор : 196343417880392629596491393831807734904 (0x93B65DE5D0224313855403F821A7D478)
Полное имя : C:\Фильмы\Krov.2012.P.BDRip.1080p.R.G.Daredevil.mkv
Формат : Matroska
Версия формата : Version 2
Размер файла : 8,90 Гбайт
Продолжительность : 1 ч. 32 м.
Общий поток : 13,8 Мбит/сек
Название фильма : IRONCLUB
Дата кодирования : UTC 2013-06-17 09:58:57
Программа кодирования : mkvmerge v5.2.0 ('I can't explain') built on Dec 18 2011 18:12:03
Библиотека кодирования : libebml v1.2.3 + libmatroska v1.3.0

Видео
Идентификатор : 1
Формат : AVC
Формат/Информация : Advanced Video Codec
Профиль формата : High@L4.1
Параметр CABAC формата : Да
Параметр ReFrames формата : 5 кадров
Идентификатор кодека : V_MPEG4/ISO/AVC
Продолжительность : 1 ч. 32 м.
Битрейт : 12,5 Мбит/сек
Ширина : 1920 пикселей
Высота : 818 пикселей
Соотношение сторон : 2,35:1
Режим частоты кадров : Постоянный
Частота кадров : 23,976 кадра/сек
Цветовое пространство : YUV
Субдискретизация насыщенности : 4:2:0
Битовая глубина : 8 бит
Тип развёртки : Прогрессивная
Бит/(Пиксели*Кадры) : 0.332
Размер потока : 8,07 Гбайт (91%)
Заголовок : Blood 2012 1080p BluRay DD5.1 x264-CRiSC
Библиотека кодирования : x264 core 133 r2334kMod a3ac64b
Настройки программы : cabac=1 / ref=5 / deblock=1:-3:-3 / analyse=0x3:0x133 / me=umh / subme=11 / psy=1 / fade_compensate=0.00 / psy_rd=1.00:0.00 / mixed_ref=1 / me_range=64 / chroma_me=1 / trellis=2 / 8x8dct=1 / cqm=0 / deadzone=21,11 / fast_pskip=0 / chroma_qp_offset=-2 / threads=12 / lookahead_threads=3 / sliced_threads=0 / nr=0 / decimate=0 / interlaced=0 / bluray_compat=0 / constrained_intra=0 / bframes=11 / b_pyramid=2 / b_adapt=2 / b_bias=0 / direct=3 / weightb=1 / open_gop=0 / weightp=2 / keyint=250 / keyint_min=23 / scenecut=40 / intra_refresh=0 / rc_lookahead=40 / rc=crf / mbtree=0 / crf=17.3500 / qcomp=0.75 / qpmin=0 / qpmax=69 / qpstep=4 / vbv_maxrate=50000 / vbv_bufsize=62500 / crf_max=0.0 / nal_hrd=none / ip_ratio=1.35 / pb_ratio=1.25 / aq=1:0.60
Язык : English
Default : Да
Forced : Да
Основные цвета : BT.709
Характеристики трансфера : BT.709
Коэффициенты матрицы : BT.709

Аудио #1
Идентификатор : 2
Формат : AC-3
Формат/Информация : Audio Coding 3
Расширение режима : CM (complete main)
Параметр Endianness формата : Big
Идентификатор кодека : A_AC3
Продолжительность : 1 ч. 32 м.
Вид битрейта : Постоянный
Битрейт : 384 Кбит/сек
Каналы : 6 каналов
Расположение каналов : Front: L C R, Side: L R, LFE
Частота : 48,0 КГц
Битовая глубина : 16 бит
Метод сжатия : С потерями
Размер потока : 253 Мбайт (3%)
Заголовок : DD 5.1 @ 384 kbps - MVO, R5
Язык : Russian
Default : Да
Forced : Да

Аудио #2
Идентификатор : 3
Формат : AC-3
Формат/Информация : Audio Coding 3
Расширение режима : CM (complete main)
Параметр Endianness формата : Big
Идентификатор кодека : A_AC3
Продолжительность : 1 ч. 32 м.
Вид битрейта : Постоянный
Битрейт : 640 Кбит/сек
Каналы : 6 каналов
Расположение каналов : Front: L C R, Side: L R, LFE
Частота : 48,0 КГц
Битовая глубина : 16 бит
Метод сжатия : С потерями
Размер потока : 422 Мбайт (5%)
Заголовок : DD 5.1 @ 640 kbps
Язык : English
Default : Нет
Forced : Нет

Текст #1
Идентификатор : 4
Формат : UTF-8
Идентификатор кодека : S_TEXT/UTF8
Идентификатор кодека/Информация : UTF-8 Plain Text
Заголовок : R5
Язык : Russian
Default : Нет
Forced : Нет

Текст #2
Идентификатор : 5
Формат : UTF-8
Идентификатор кодека : S_TEXT/UTF8
Идентификатор кодека/Информация : UTF-8 Plain Text
Язык : English
Default : Нет
Forced : Нет

Меню
00:00:00.000 : en:00:00:00.000
00:07:40.126 : en:00:07:40.126
00:14:26.491 : en:00:14:26.491
00:22:06.909 : en:00:22:06.909
00:31:48.907 : en:00:31:48.907
00:38:34.479 : en:00:38:34.479
00:46:56.147 : en:00:46:56.147
00:53:57.317 : en:00:53:57.317
01:00:48.979 : en:01:00:48.979
01:07:17.909 : en:01:07:17.909
01:14:48.651 : en:01:14:48.651
01:23:02.060 : en:01:23:02.060
Свернуть
Скриншоты
Изображение
Изображение
Изображение
Изображение
Свернуть
Не в сети
Профиль  
 Добавлено: 2013-06-21 01:48 (спустя 3 дня)
Аватара пользователя
Стаж: 8 лет 9 месяцев
Сообщений: 154
Спасибок: 110
Лайков: 1
ни одного комента :sh_ok:

Добавлено спустя 20 секунд:
вы что ребята
Не в сети
Профиль  
 Добавлено: 2013-06-22 15:24 (спустя 1 день 13 часов)
Аватара пользователя
Стаж: 8 лет 11 месяцев
Сообщений: 515
Спасибок: 39
Лайков: 49

shum369:

ни одного комента :sh_ok:

Добавлено спустя 20 секунд:
вы что ребята

Ну ладно, уговорил, щас выдавлю... : NO COMMENTS!
Не в сети
Профиль  
Начать новую темуОтветить на тему  [ Сообщений: 3 ] 
Вы не можете начинать темы
Вы не можете отвечать на сообщения
Вы не можете редактировать свои сообщения
Вы не можете удалять свои сообщения