Правила форума

  • В этом разделе создание новых тем Запрещено.
  • Для создания новых тем пользуйтесь Корневым разделом DVD и HD фильмы.
Начать новую темуОтветить на тему  [ Сообщений: 2 ] 
Торрент файл
Размер: 5.18 GB • Зарегистрирован: 1 год 9 месяцев • Статус: T Временный релиз
Скачан: 246 раз • Желающих скачать: 0 • Поблагодарили: 37 раз
 Раздают: 0  |  0 KB/s  ]   Качают: 0  |  0 KB/s  ] 
 Полного источника не было 3 часа 
Сообщения
 Добавлено: 2015-03-01 17:01
Модератор
Аватара пользователя
Стаж: 5 лет 8 месяцев
Сообщений: 6281
Спасибок: 17335
Лайков: 1633
Кровавая леди Батори

Lady of Csejte


Изображение


Год выпуска: 2014
Страна: Россия, США
Жанр: Триллер
Продолжительность: 01:47:03
Язык: Русский
Режиссер: Андрей Конст
В ролях: Светлана Ходченкова, Павел Деревянко, Ада Кондееску, Хория Врачиу, Изабелль Аллен, Лукас Бонд, Лия Синчевич, Александра Пояна, Пауль Дьяконеску, Вирджиния Рогин
Описание: 17 век… Чейте (Чахтице), королевство Венгрия. В огромном замке, окруженном лесами и горами, живет прекрасная графиня Элизабета Батори. Она умна и красива, элегантна и учтива. И никто не знает, что в замке знаменитой красавицы творятся страшные вещи… Иногда легенды — не вымысел. Такова история самой влиятельной женщины своего времени и самой жестокой убийцы всех времен.
Sample:
http://multi-up.com/1035712
Качество: WEB-DLRip 1080p
Формат: MKV
Видео: MPEG-4 AVC, 6500 Кбит/с, 1920x736
Аудио: AC3 6ch 448kbps
MI
General
Unique ID : 230230730163318017641343673594602287531 (0xAD34D3634D203921A08E52965CF771AB)
Complete name : C:Krovavay.Ledi.Batori.2015.O.WEB-DL.1080p.mkv
Format : Matroska
Format version : Version 2
File size : 5.18 GiB
Duration : 1h 47mn
Overall bit rate : 6 926 Kbps
Movie name : Krovavay.Ledi.Batori.2015.O.WEB-DL.1080p.ELEKTRI4KA.uniongang.tv.mkv
Encoded date : UTC 2015-02-28 20:48:26
Writing application : mkvmerge v5.0.1 ('Es ist Sommer') built on Nov 6 2011 16:23:40
Writing library : libebml v1.2.2 + libmatroska v1.3.0

Video
ID : 1
Format : AVC
Format/Info : Advanced Video Codec
Format profile : High@L4.1
Format settings, CABAC : Yes
Format settings, ReFrames : 5 frames
Codec ID : V_MPEG4/ISO/AVC
Duration : 1h 47mn
Bit rate : 6 500 Kbps
Width : 1 920 pixels
Height : 736 pixels
Display aspect ratio : 2.609
Frame rate mode : Constant
Frame rate : 24.000 fps
Color space : YUV
Chroma subsampling : 4:2:0
Bit depth : 8 bits
Scan type : Progressive
Bits/(Pixel*Frame) : 0.192
Stream size : 4.74 GiB (92%)
Title : Krovavay.Ledi.Batori.2015.O.WEB-DL.1080p.ELEKTRI4KA.uniongang.tv.mkv
Writing library : x264 core 125 r2208 d9d2288
Encoding settings : cabac=1 / ref=5 / deblock=1:-1:0 / analyse=0x3:0x113 / me=umh / subme=7 / psy=1 / psy_rd=0.40:0.00 / mixed_ref=1 / me_range=16 / chroma_me=1 / trellis=2 / 8x8dct=1 / cqm=0 / deadzone=21,11 / fast_pskip=0 / chroma_qp_offset=-2 / threads=12 / lookahead_threads=2 / sliced_threads=0 / nr=0 / decimate=1 / interlaced=0 / bluray_compat=0 / constrained_intra=0 / bframes=5 / b_pyramid=2 / b_adapt=2 / b_bias=0 / direct=3 / weightb=1 / open_gop=0 / weightp=2 / keyint=250 / keyint_min=23 / scenecut=40 / intra_refresh=0 / rc_lookahead=60 / rc=2pass / mbtree=1 / bitrate=6500 / ratetol=1.0 / qcomp=0.70 / qpmin=0 / qpmax=69 / qpstep=4 / cplxblur=20.0 / qblur=0.5 / vbv_maxrate=17500 / vbv_bufsize=14000 / nal_hrd=none / ip_ratio=1.40 / aq=1:0.60
Language : English
Default : Yes
Forced : No

Audio
ID : 2
Format : AC-3
Format/Info : Audio Coding 3
Mode extension : CM (complete main)
Format settings, Endianness : Big
Codec ID : A_AC3
Duration : 1h 47mn
Bit rate mode : Constant
Bit rate : 448 Kbps
Channel(s) : 6 channels
Channel positions : Front: L C R, Side: L R, LFE
Sampling rate : 48.0 KHz
Bit depth : 16 bits
Compression mode : Lossy
Stream size : 343 MiB (6%)
Title : Krovavay.Ledi.Batori.2015.O.WEB-DL.1080p.ELEKTRI4KA.uniongang.tv.mkv
Language : Russian
Default : Yes
Forced : No
Свернуть
"Скриншоты"
ИзображениеИзображениеИзображение
Свернуть
_________________
Изображение Изображение Изображение
Не в сети
Профиль  
 Добавлено: 2015-03-12 16:35 (спустя 10 дней)
Стаж: 5 лет 10 месяцев
Сообщений: 280
Лайков: 8
дааааа...редкостное говнецо с весьма расхожей историей....но Ходченкова-это вообще,что то с нечто...строить из себя пытается графиню..мдя...1 из 10 фильму...да и вообще,знаю из истории,что Графиня Батори была брюнетка))))
Не в сети
Профиль  
Начать новую темуОтветить на тему  [ Сообщений: 2 ] 
Вы не можете начинать темы
Вы не можете отвечать на сообщения
Вы не можете редактировать свои сообщения
Вы не можете удалять свои сообщения