Правила форума

  • В этом разделе создание новых тем Запрещено.
  • Для создания новых тем пользуйтесь Корневым разделом DVD и HD фильмы.
Начать новую темуОтветить на тему  [ Сообщений: 4 ] 
Торрент файл
Размер: 10.8 GB • Зарегистрирован: 4 года 6 месяцев • Статус: Проверено
Скачан: 97 раз • Желающих скачать: 0 • Поблагодарили: 28 раз
 Раздают: 1  |  0 KB/s  ]   Качают: 0  |  0 KB/s  ] 
Сообщения
 Добавлено: 2012-05-25 12:01
Аватара пользователя
Стаж: 8 лет 9 месяцев
Сообщений: 59
Спасибок: 336
Кровавый алмаз / Blood Diamond

Изображение


Год выпуска: 2006
Страна: США
Слоган: «Ценою в целую жизнь»
Жанр: Драма, триллер, приключения
Продолжительность: 2:23:21
Перевод: Профессиональный (дубляж)
Субтитры: Русские

Режиссёр: Эдвард Цвик
Сценарист: Чарльз Ливитт, С. Гэби Митчел
Продюсер: Паула Вайнштейн, Эдвард Цвик, Джиллиан Горфил
Оператор: Эдуарду Серра
Композитор: Джеймс Ньютон Ховард
В ролях: Леонардо Ди Каприо, Джимон Хонсу, Дженнифер Коннелли, Caruso Kuypers, Арнольд Вослоу, Энтони Коулмэн, Benu Mabhena, Anointing Lukola, Дэвид Хэрвуд, Бейзил Уоллес
Описание: 1999, Сьерра-Леоне. Гражданская война. Кровь и хаос. В этой безрадостной атмосфере орудует ловкий контрабандист, специальность которого — бриллианты. Ему нет особенного дела, что эти камешки используются для дальнейшего нагнетания межнациональной розни.

Но однажды контрабандист встречает местного фермера, у которого пропал сын — его, говорят, забрали в «детскую армию», используемую на фронтах гражданской войны. И два разных человека образуют противоестественную коалицию.
Рейтинг MPAA: Рейтинг R (Подростки до 17 лет допускаются на фильм только в сопровождении одного из родителей)
Мировая премьера: 8 декабря 2006
Премьера в России: 1 февраля 2007
Бюджет: $100 000 000
Кассовые сборы: $171 405 846
Изображение Изображение

Качество: BDRip 1080p
Формат: MKV
Видео кодек: H.26x
Аудио кодек: AC3 (Dolby Digital)
Видео: 1920x800 (OAR), 23.976 fps, MPEG-4 AVC, ~10.4Mbps avg
Аудио #1: Russian: DD 5.1 (AC3), 48 kHz ~384 kbps avg [Профессиональный (дубляж)]
Аудио#2: English: DTS 5.1 (DTS), 48 kHz ~1536 kbps avg (отдельным файлом)
Аудио#3: English: LPCM 16 bit (FLAC), ~1.5 Mbps avg (отдельным файлом)
Субтитры: Русские, Английские

Скриншоты
Изображение
Изображение
Изображение
Свернуть


"MI"
General
Unique ID : 221389783804840423113726583807219415512 (0xA68E1F1424BE4462B9A2A0DBE66139D8)
Complete name : D:\Вова\Кино\Кровавый алмаз.2006.Bluray.1080p.x264.Rus.mkv
Format : Matroska
Format version : Version 1
File size : 10.8 GiB
Duration : 2h 23mn
Overall bit rate : 10.8 Mbps
Encoded date : UTC 2007-08-01 13:47:47
Writing application : mkvmerge v2.0.2 ('You're My Flame') built on Feb 21 2007 23:40:55
Writing library : libebml v0.7.7 + libmatroska v0.8.1

Video
ID : 1
Format : AVC
Format/Info : Advanced Video Codec
Format profile : High@L5.1
Format settings, CABAC : Yes
Format settings, ReFrames : 8 frames
Codec ID : V_MPEG4/ISO/AVC
Duration : 2h 23mn
Bit rate : 10.4 Mbps
Width : 1 920 pixels
Height : 800 pixels
Display aspect ratio : 2.40:1
Frame rate : 23.976 fps
Color space : YUV
Chroma subsampling : 4:2:0
Bit depth : 8 bits
Scan type : Progressive
Bits/(Pixel*Frame) : 0.282
Stream size : 10.2 GiB (94%)
Title : 1920x800 x264 10.4Mbps 23.976fps Video
Writing library : x264 core 55 svn-661C
Encoding settings : cabac=1 / ref=5 / deblock=1:-2:-3 / analyse=0x3:0x133 / me=umh / subme=6 / brdo=1 / mixed_ref=1 / me_range=16 / chroma_me=1 / trellis=1 / 8x8dct=1 / cqm=2 / deadzone=21,11 / chroma_qp_offset=0 / threads=3 / nr=0 / decimate=1 / mbaff=0 / bframes=3 / b_pyramid=1 / b_adapt=1 / b_bias=0 / direct=3 / wpredb=1 / bime=1 / keyint=250 / keyint_min=25 / scenecut=40(pre) / rc=2pass / bitrate=10399 / ratetol=1.0 / rceq='blurCplx^(1-qComp)' / qcomp=0.60 / qpmin=10 / qpmax=51 / qpstep=4 / cplxblur=20.0 / qblur=0.5 / ip_ratio=1.40 / pb_ratio=1.30 / aq=1:0.3:15.0
Default : Yes
Forced : No

Audio
ID : 2
Format : AC-3
Format/Info : Audio Coding 3
Mode extension : CM (complete main)
Format settings, Endianness : Big
Codec ID : A_AC3
Duration : 2h 23mn
Bit rate mode : Constant
Bit rate : 384 Kbps
Channel(s) : 6 channels
Channel positions : Front: L C R, Side: L R, LFE
Sampling rate : 48.0 KHz
Bit depth : 16 bits
Compression mode : Lossy
Stream size : 394 MiB (4%)
Language : Russian
Default : Yes
Forced : No

Text #1
ID : 3
Format : VobSub
Muxing mode : zlib
Codec ID : S_VOBSUB
Codec ID/Info : The same subtitle format used on DVDs
Language : Russian
Default : No
Forced : No

Text #2
ID : 4
Format : UTF-8
Codec ID : S_TEXT/UTF8
Codec ID/Info : UTF-8 Plain Text
Language : English
Default : No
Forced : No
Свернуть
Не в сети
Профиль  
 Добавлено: 2014-06-14 21:02 (спустя 2 года)
Кинокомментатор
Аватара пользователя
Стаж: 9 лет
Сообщений: 1331
Лайков: 52
Шикарное кино! очень сильно всё! от начала и до конца! всё просто пропитано "этой красной землёй Африки"...
Дикаприо неимоверно хорош, как в принципе и всегда)
смотреть всем "любителям" побрякушек и алмазов в частности;)
9/10
_________________
Я ВКонтакте
Не в сети
Профиль  
 Добавлено: 2014-06-27 12:53 (спустя 12 дней)
Аватара пользователя
Стаж: 7 лет 1 месяц
Сообщений: 6
поддай газку :bra_vo:
Не в сети
Профиль  
 Добавлено: 2014-12-01 21:32 (спустя 5 месяцев 4 дня)
Стаж: 4 года 6 месяцев
Сообщений: 6
Лайков: 1
фильм стоящий, Дикаприо правда в паре сцен не выглядит как наемник головорез (хотя по образу должен был), но играет очень сильно, особенно концовка впечатлила.
Не в сети
Профиль  
Начать новую темуОтветить на тему  [ Сообщений: 4 ] 
Вы не можете начинать темы
Вы не можете отвечать на сообщения
Вы не можете редактировать свои сообщения
Вы не можете удалять свои сообщения