Правила форума

  • В этом разделе создание новых тем Запрещено.
  • Для создания новых тем пользуйтесь Корневым разделом DVD и HD фильмы.
Начать новую темуОтветить на тему  [ 1 сообщение ] 
Торрент файл
Размер: 2.82 GB • Зарегистрирован: 1 год 2 месяца • Статус: T Временный релиз
Скачан: 29 раз • Желающих скачать: 0 • Поблагодарили: 9 раз
 Раздают: 0  |  0 KB/s  ]   Качают: 0  |  0 KB/s  ] 
 Полного источника не было 29 дней 
Сообщения
 Добавлено: 2015-09-17 14:22
Top-seeder
Аватара пользователя
Стаж: 8 лет 1 месяц
Возраст: 102
Сообщений: 6779
Спасибок: 2008
Лайков: 5756
Кровососущие подонки / Bloodsucking Bastards

Год выпуска: 2015
Изображение

Производство: США

Жанр: Ужасы, Комедия

Режиссер: Брайан Джеймс О’Коннелл

Актеры: Фрэн Кренц, Педро Паскаль, Джои Керн, Джоэль Мюррей, Эмма Фитцпатрик, Ивет Йэтс, Джастин Уэр, Маршалл Такер, Дэвид Ф. Парк

Описание фильма: Трудяга Эван давно работает в корпорации и ждет повышения. Однако его босс отдает эту должность заклятому врагу Эвана — Максу. Вскоре в офисе начинают происходить изменения, и оказывается, что Макс — настоящий вампир…

Перевод: Двуголосый закадровый, любительский

Озвучка / Автор перевода: 2D

Язык субтитров: Английский

Вид субтитров: Вшитые отключаемые

Изображение

Изображение

Продолжительность: 01:24:03
Качество: WEB-DL 720p

Видео: AVC/H.264, 1280x570, ~3944 Кбит/сек
Аудио 1: AC3, 6 ch, 384 Кбит/сек / Русский, CBR
Аудио 2: AC3, 6 ch, 384 Кбит/сек / Английский, CBR

Mediainfo:
Общее
Уникальный идентификатор : 233619355644966029949939335806008596550 (0xAFC17385F0969FDAAD43DCCFF5C69846)
Полное имя : D:\FILMS\Krovososuschie.Podonki.2015.mkv
Формат : Matroska
Версия формата : Version 4 / Version 2
Размер файла : 2,82 Гбайт
Продолжительность : 1 ч. 24 м.
Общий поток : 4807 Кбит/сек
Дата кодирования : UTC 2015-09-14 21:42:07
Программа кодирования : mkvmerge v8.1.0 ('Psychedelic Postcard') 64bit
Библиотека кодирования : libebml v1.3.1 + libmatroska v1.4.2
DURATION : 01:24:03.552000000
NUMBER_OF_FRAMES : 157611
NUMBER_OF_BYTES : 242090496
_STATISTICS_WRITING_APP : mkvmerge v8.1.0 ('Psychedelic Postcard') 64bit
_STATISTICS_WRITING_DATE_UTC : 2015-09-14 21:42:07
_STATISTICS_TAGS : BPS DURATION NUMBER_OF_FRAMES NUMBER_OF_BYTES

Видео
Идентификатор : 1
Формат : AVC
Формат/Информация : Advanced Video Codec
Профиль формата : High@L3.1
Параметр CABAC формата : Нет
Параметр ReFrames формата : 2 кадра
Идентификатор кодека : V_MPEG4/ISO/AVC
Продолжительность : 1 ч. 24 м.
Битрейт : 3944 Кбит/сек
Ширина : 1280 пикселей
Высота : 570 пикселей
Соотношение сторон : 2,25:1
Режим частоты кадров : Постоянный
Частота кадров : 23,976 кадра/сек
Цветовое пространство : YUV
Субдискретизация насыщенности : 4:2:0
Битовая глубина : 8 бит
Тип развёртки : Прогрессивная
Бит/(Пиксели*Кадры) : 0.225
Размер потока : 2,32 Гбайт (82%)
Заголовок : Bloodsucking.Bastards.2015.720p.WEB-DL.DD5.1.H264-RARBG
Язык : English
Default : Да
Forced : Нет
Цветовой диапазон : Limited
Основные цвета : BT.709
Характеристики трансфера : BT.709
Коэффициенты матрицы : BT.709

Аудио #1
Идентификатор : 2
Формат : AC-3
Формат/Информация : Audio Coding 3
Расширение режима : CM (complete main)
Параметр Endianness формата : Big
Идентификатор кодека : A_AC3
Продолжительность : 1 ч. 24 м.
Вид битрейта : Постоянный
Битрейт : 384 Кбит/сек
Каналы : 6 каналов
Расположение каналов : Front: L C R, Side: L R, LFE
Частота : 48,0 КГц
Метод сжатия : С потерями
Размер потока : 231 Мбайт (8%)
Язык : Russian
Default : Нет
Forced : Нет

Аудио #2
Идентификатор : 3
Формат : AC-3
Формат/Информация : Audio Coding 3
Расширение режима : CM (complete main)
Параметр Endianness формата : Big
Идентификатор кодека : A_AC3
Продолжительность : 1 ч. 24 м.
Вид битрейта : Постоянный
Битрейт : 384 Кбит/сек
Каналы : 6 каналов
Расположение каналов : Front: L C R, Side: L R, LFE
Частота : 48,0 КГц
Метод сжатия : С потерями
Размер потока : 231 Мбайт (8%)
Язык : English
Default : Нет
Forced : Нет

Текст
Идентификатор : 4
Формат : UTF-8
Идентификатор кодека : S_TEXT/UTF8
Идентификатор кодека/Информация : UTF-8 Plain Text
Язык : English
Default : Нет
Forced : Нет
Свернуть

Скриншоты:
Изображение
Изображение
Изображение
Изображение
Свернуть
Не в сети
Профиль  
Начать новую темуОтветить на тему  [ 1 сообщение ] 
Вы не можете начинать темы
Вы не можете отвечать на сообщения
Вы не можете редактировать свои сообщения
Вы не можете удалять свои сообщения