Правила форума

  • В этом разделе создание новых тем Запрещено.
  • Для создания новых тем пользуйтесь Корневым разделом DVD и HD фильмы.
Начать новую темуОтветить на тему  [ 1 сообщение ] 
Торрент файл
Размер: 8.82 GB • Зарегистрирован: 3 года 3 месяца • Статус: Проверено
Скачан: 85 раз • Желающих скачать: 0 • Поблагодарили: 28 раз
 Раздают: 0  |  0 KB/s  ]   Качают: 0  |  0 KB/s  ] 
 Полного источника не было 1 год 1 месяц 
Сообщения
 Добавлено: 2013-09-06 00:09
Top-releaser
Аватара пользователя
Стаж: 8 лет 9 месяцев
Сообщений: 479
Спасибок: 20189
Лайков: 16
Изображение

Изображение

Pain & Gain


«Мечтай по-крупному»

Год выпуска: 2013
Страна: Изображение США; De Line Pictures, Изображение Paramount Pictures
Жанр: Криминал, комедия, триллер, боевик
Продолжительность: 02:09:37
Перевод: Профессиональный (дублированный) [Лицензия], Оригинал
Субтитры: Русские, английские

Режиссёр: Майкл Бэй / Michael Bay

В ролях: ДМарк Уолберг, Дуэйн Джонсон, Энтони Маки, Тони Шэлуб, Эд Харрис, Кен Жонг, Иоланта Кабау ван Касберген, Виорика Пинеда, Роб Кордри, Ребел Уилсон

Описание: Однажды тренеру по фитнесу надоело ходить в трениках. Он решил круто изменить свою судьбу и разбогатеть. Нашел двух других незадачливых качков и предложил им план похищения своего клиента-миллионера. Но если в организме мышц больше, чем мозгов, то даже самый лучший план, подсмотренный в экшен-боевике, может не сработать…


Качество: BDRip 720p R5
Формат: MKV

Видео: AVC at 6525 Кбит/сек, 1280 x 534 (2.397) at 23.976 fps

Аудио 1: DTS at 1510 Кбит/сек, 6 канала(ов), 48,0 КГц [Дубляж]
Аудио 2: DTS at 1510 Кбит/сек, 6 канала(ов), 48,0 КГц [Оригинал]
Раздача: Изображение

Изображение
MediaInfo

Общее
Уникальный идентификатор : 228200192232615364621572711750961723730 (0xABADC22375AD7204ADAEB5433AD7F952)
Полное имя : C:\Users\Домашний\Desktop\Pain.&.Gain.2013.720p.[nntt].mkv
Формат : Matroska
Размер файла : 8,82 Гбайт
Продолжительность : 2 ч. 9 м.
Общий поток : 9738 Кбит/сек
Название фильма : Pain & Gain (2013) - Release for HDCLUB
Дата кодирования : UTC 2013-09-05 19:19:36
Программа кодирования : mkvmerge v3.4.0 ('Rapunzel') built on May 15 2010 09:38:20
Библиотека кодирования : libebml v0.8.0 + libmatroska v0.9.0

Видео
Идентификатор : 1
Формат : AVC
Формат/Информация : Advanced Video Codec
Профиль формата : High@L4.1
Параметр CABAC формата : Да
Параметр ReFrames формата : 12 кадры
Параметры GOP формата : M=12, N=33
Идентификатор кодека : V_MPEG4/ISO/AVC
Продолжительность : 2 ч. 9 м.
Битрейт : 6525 Кбит/сек
Ширина : 1280 пикс.
Высота : 534 пикс.
Соотношение сторон : 2,35:1
Частота кадров : 23,976 кадр/сек
Цветовое пространство : YUV
Подвыборка цветности : 4:2:0
Битовая глубина : 8 бит
Тип развёртки : Прогрессивная
Бит/(Пиксели*Кадры) : 0.398
Размер потока : 5,91 Гбайт (67%)
Заголовок : Pain & Gain (2013) - Release for HDCLUB
Библиотека кодирования : x264 core 135 r2345kMod f0c1c53
Настройки программы : cabac=1 / ref=12 / deblock=1:-3:-3 / analyse=0x3:0x113 / me=umh / subme=11 / psy=1 / fade_compensate=0.00 / psy_rd=0.93:0.00 / mixed_ref=1 / me_range=32 / chroma_me=1 / trellis=2 / 8x8dct=1 / cqm=0 / deadzone=6,6 / fast_pskip=0 / chroma_qp_offset=-4 / threads=6 / lookahead_threads=1 / sliced_threads=0 / nr=0 / decimate=0 / interlaced=0 / bluray_compat=0 / constrained_intra=0 / bframes=12 / b_pyramid=2 / b_adapt=2 / b_bias=0 / direct=1 / weightb=1 / open_gop=0 / weightp=2 / keyint=230 / keyint_min=23 / scenecut=40 / intra_refresh=0 / rc_lookahead=60 / rc=crf / mbtree=0 / crf=17.7000 / qcomp=0.65 / qpmin=0 / qpmax=69 / qpstep=4 / vbv_maxrate=50000 / vbv_bufsize=62500 / crf_max=0.0 / nal_hrd=none / ip_ratio=1.10 / pb_ratio=1.10 / aq=3:0.85
Язык : English

Аудио #1
Идентификатор : 2
Формат : DTS
Формат/Информация : Digital Theater Systems
Идентификатор кодека : A_DTS
Продолжительность : 2 ч. 9 м.
Вид битрейта : Постоянный
Битрейт : 1510 Кбит/сек
Канал(ы) : 6 канала(ов)
Расположение каналов : Front: L C R, Side: L R, LFE
Частота : 48,0 КГц
Битовая глубина : 24 бит
Метод сжатия : С потерями
Размер потока : 1,37 Гбайт (16%)
Заголовок : DTS 5.1 @ 1536 kbps - Dub, Blu-ray RUS
Язык : Russian

Аудио #2
Идентификатор : 3
Формат : DTS
Формат/Информация : Digital Theater Systems
Идентификатор кодека : A_DTS
Продолжительность : 2 ч. 9 м.
Вид битрейта : Постоянный
Битрейт : 1510 Кбит/сек
Канал(ы) : 6 канала(ов)
Расположение каналов : Front: L C R, Side: L R, LFE
Частота : 48,0 КГц
Битовая глубина : 24 бит
Метод сжатия : С потерями
Размер потока : 1,37 Гбайт (16%)
Заголовок : DTS 5.1 @ 1536 kbps
Язык : English

Текст #1
Идентификатор : 4
Формат : UTF-8
Идентификатор кодека : S_TEXT/UTF8
Идентификатор кодека/Информация : UTF-8 Plain Text
Язык : Russian

Текст #2
Идентификатор : 5
Формат : UTF-8
Идентификатор кодека : S_TEXT/UTF8
Идентификатор кодека/Информация : UTF-8 Plain Text
Язык : English

Текст #3
Идентификатор : 6
Формат : UTF-8
Идентификатор кодека : S_TEXT/UTF8
Идентификатор кодека/Информация : UTF-8 Plain Text
Заголовок : SDH
Язык : English

Меню
00:00:00.000 : en:00:00:00.000
00:02:34.654 : en:00:02:34.654
00:09:33.990 : en:00:09:33.990
00:16:08.676 : en:00:16:08.676
00:22:05.658 : en:00:22:05.658
00:25:50.841 : en:00:25:50.841
00:32:45.505 : en:00:32:45.505
00:38:52.789 : en:00:38:52.789
00:46:19.652 : en:00:46:19.652
00:51:40.973 : en:00:51:40.973
00:58:11.738 : en:00:58:11.738
01:04:03.548 : en:01:04:03.548
01:10:32.311 : en:01:10:32.311
01:16:17.281 : en:01:16:17.281
01:21:20.542 : en:01:21:20.542
01:29:00.085 : en:01:29:00.085
01:37:06.029 : en:01:37:06.029
01:42:17.715 : en:01:42:17.715
01:49:10.461 : en:01:49:10.461
01:56:34.487 : en:01:56:34.487
02:01:42.295 : en:02:01:42.295


Свернуть
Скриншоты

Изображение
Изображение
Изображение
Изображение
Изображение
Свернуть
_________________
Изображение
Изображение
Не в сети
Профиль  
Начать новую темуОтветить на тему  [ 1 сообщение ] 
Вы не можете начинать темы
Вы не можете отвечать на сообщения
Вы не можете редактировать свои сообщения
Вы не можете удалять свои сообщения