Правила форума

  • В этом разделе создание новых тем Запрещено.
  • Для создания новых тем пользуйтесь Корневым разделом DVD и HD фильмы.
Начать новую темуОтветить на тему  [ Сообщений: 10 ] 
Торрент файл
Размер: 15.36 GB • Зарегистрирован: 3 года 2 месяца • Статус: Проверено
Скачан: 303 раза • Желающих скачать: 0 • Поблагодарили: 89 раз
 Раздают: 1  |  0.7 KB/s  ]   Качают: 0  |  0 KB/s  ] 
Сообщения
 Добавлено: 2013-09-05 23:41
Аватара пользователя
Стаж: 9 лет 1 месяц
Сообщений: 7977
Спасибок: 122205
Лайков: 1191
Кровью и потом: Анаболики / Pain & Gain

«Мечтай по-крупному»

Изображение


Год выпуска: 2013
Страна: Изображение США
Жанр: криминал, комедия, триллер, боевик
Продолжительность: 02:09:36
Субтитры: Английские
Перевод: Профессиональный (полное дублирование) [Лицензия]


Режиссер: Майкл Бэй
Сценарий: Кристофер Маркус, Стивен МакФили, Пит Коллинз
Продюсер: Майкл Бэй, Йен Брайс, Дональд Де Лайн
Оператор: Бен Сересин
Композитор: Стив Яблонски

В ролях: Марк Уолберг, Дуэйн Джонсон, Энтони Маки, Тони Шэлуб, Эд Харрис, Кен Жонг, Иоланта Кабау ван Касберген, Виорика Пинеда, Роб Кордри, Ребел Уилсон

Описание: Однажды тренеру по фитнесу надоело ходить в трениках. Он решил круто изменить свою судьбу и разбогатеть. Нашел двух других незадачливых качков и предложил им план похищения своего клиента-миллионера. Но если в организме мышц больше, чем мозгов, то даже самый лучший план, подсмотренный в экшен-боевике, может не сработать…

Изображение Изображение

Раздача группы: Изображение

Качество: BDRip (1080p)
Формат: Matroska
Видео: MPEG-4 AVC, 14.1 Мбит/с, 1920x800
Аудио №1: Русский (DTS, 48,0 КГц, 6 ch, 1510 Кбит/c)
Аудио №2: Английский (AC3, 48,0 КГц, 6 ch, 640 Кбит/c)

MediaInfo
Общее
Уникальный идентификатор : 213908834269012511829267632853954671069 (0xA0ED57CA2DF9D8F0926A0475EA6531DD)
Полное имя : C:\Фильмы\Krovu.i.potom.anaboliki.2013.D.BDRip.1080p..R.G.Daredevil.mkv
Формат : Matroska
Версия формата : Version 2
Размер файла : 15,0 Гбайт
Продолжительность : 2 ч. 9 м.
Общий поток : 16,6 Мбит/сек
Дата кодирования : UTC 2013-09-05 18:22:46
Программа кодирования : mkvmerge v5.4.0 ('Piper') built on Mar 10 2012 13:34:39
Библиотека кодирования : libebml v1.2.3 + libmatroska v1.3.0

Видео
Идентификатор : 1
Формат : AVC
Формат/Информация : Advanced Video Codec
Профиль формата : High@L4.1
Параметр CABAC формата : Да
Параметр ReFrames формата : 5 кадров
Режим смешивания : Header stripping
Идентификатор кодека : V_MPEG4/ISO/AVC
Продолжительность : 2 ч. 9 м.
Битрейт : 14,1 Мбит/сек
Ширина : 1920 пикселей
Высота : 800 пикселей
Соотношение сторон : 2,40:1
Режим частоты кадров : Постоянный
Частота кадров : 23,976 кадра/сек
Цветовое пространство : YUV
Субдискретизация насыщенности : 4:2:0
Битовая глубина : 8 бит
Тип развёртки : Прогрессивная
Бит/(Пиксели*Кадры) : 0.383
Размер потока : 12,8 Гбайт (85%)
Библиотека кодирования : x264 core 132 r2323+704+51 d571b1c tMod [8-bit@4:2:0 X86_64]
Настройки программы : cabac=1 / ref=5 / deblock=1:-3:-3 / analyse=0x3:0x133 / me=umh / subme=11 / psy=1 / fade_compensate=0.00 / psy_rd=1.10:0.00 / mixed_ref=1 / me_range=48 / chroma_me=1 / trellis=2 / 8x8dct=1 / cqm=0 / deadzone=21,11 / fast_pskip=0 / chroma_qp_offset=-2 / threads=36 / lookahead_threads=6 / sliced_threads=0 / nr=0 / decimate=0 / interlaced=0 / bluray_compat=0 / constrained_intra=0 / fgo=0 / bframes=8 / b_pyramid=2 / b_adapt=2 / b_bias=0 / direct=3 / weightb=1 / open_gop=0 / weightp=2 / keyint=240 / keyint_min=24 / scenecut=40 / intra_refresh=0 / rc=crf / mbtree=0 / crf=18.2000 / qcomp=0.70 / qpmin=0 / qpmax=69 / qpstep=4 / ip_ratio=1.15 / pb_ratio=1.15 / aq=4:0.85 / aq-sensitivity=10.00 / aq-factor=1.00:1.00:1.00 / aq2=0 / aq3=0
Язык : English
Default : Да
Forced : Нет

Аудио #1
Идентификатор : 2
Формат : DTS
Формат/Информация : Digital Theater Systems
Режим : 16
Параметр Endianness формата : Big
Режим смешивания : Header stripping
Идентификатор кодека : A_DTS
Продолжительность : 2 ч. 9 м.
Вид битрейта : Постоянный
Битрейт : 1510 Кбит/сек
Каналы : 6 каналов
Расположение каналов : Front: L C R, Side: L R, LFE
Частота : 48,0 КГц
Битовая глубина : 24 бит
Метод сжатия : С потерями
Размер потока : 1,37 Гбайт (9%)
Заголовок : INTERCINEMA
Язык : Russian
Default : Да
Forced : Нет

Аудио #2
Идентификатор : 3
Формат : AC-3
Формат/Информация : Audio Coding 3
Расширение режима : CM (complete main)
Параметр Endianness формата : Big
Режим смешивания : Header stripping
Идентификатор кодека : A_AC3
Продолжительность : 2 ч. 9 м.
Вид битрейта : Постоянный
Битрейт : 640 Кбит/сек
Каналы : 6 каналов
Расположение каналов : Front: L C R, Side: L R, LFE
Частота : 48,0 КГц
Битовая глубина : 16 бит
Метод сжатия : С потерями
Размер потока : 593 Мбайт (4%)
Default : Нет
Forced : Нет

Текст
Идентификатор : 4
Формат : UTF-8
Идентификатор кодека : S_TEXT/UTF8
Идентификатор кодека/Информация : UTF-8 Plain Text
Язык : English
Default : Нет
Forced : Нет
Свернуть
Знаете ли вы, что...
Марк Уолберг рассказал, что его сыновья были в восторге, когда он набрал мышечную массу для своей роли, а его дочери это, наоборот, не понравилось.

Специально для своей роли культуриста в этом фильме Марк Уолберг увеличил свой вес до отметки в 96 килограмм.

Альберт Брукс рассматривался на роль в фильме, но подписание контракта не состоялось, и на его место пришел Джон Туртурро. В итоге Туртурро покинул проект из-за несогласованности расписаний съемок, и роль досталась Тони Шэлубу.

Майкл Бэй несколько раз откладывал работу над этим фильмом, отдавая предпочтение «Трансформерам». Он отметил, что хочет для разнообразия снять небольшой фильм со скромным бюджетом.

С бюджетом около 20 миллионов долларов этот фильм стал самым низкобюджетным проектом Майкла Бэя с момента выхода его дебютного фильма «Плохие парни» (1995). Бэю, Марку Уолбергу и Дуэйну Джонсону пришлось урезать зарплаты, чтобы не выйти за рамки бюджета.

Первый фильм Майкла Бэя с рейтингом R после выхода фильма «Плохие парни 2» (2003).

Во время съемок этого фильма Марк Уолберг занимался собственной линией бодибилдинг-продуктов. И, по его словам, он эффективно набрал мышечную массу, используя свои собственные добавки.

Действия фильма происходят в 1995-1996 годах, но полиция использует Ford Crown Victoria второго поколения, выпуск которого начался в 1998-м.

Автомобиль, на котором ездит герой Дуэйна Джонсона, — это Plymouth Prowler. Он начал выпускаться в 1997 году, то есть позже событий, описанных в фильме.

Когда священник передает напиток Дуэйну Джонсону (в стакане со льдом и пепси-колой), с края стакана падает долька лайма, а уже в следующем кадре, когда Дуэйн Джонсон собирается пить напиток, лайм на месте.

Свернуть
Скриншоты
Изображение
Изображение
Изображение
Изображение
Свернуть
Не в сети
Профиль  
 Добавлено: 2013-09-06 21:32 (спустя 21 час)
Top-seeder
Аватара пользователя
Стаж: 8 лет 3 месяца
Сообщений: 713
Спасибок: 103
Лайков: 13
у меня одного в конце фильма звука нет?
Не в сети
Профиль  
 Добавлено: 2013-09-06 23:21 (спустя 1 час 49 минут)
Аватара пользователя
Стаж: 9 лет 1 месяц
Сообщений: 7977
Спасибок: 122205
Лайков: 1191
Enic, да, проблемы со звуком в конце фильма около 2 минут были
Торрент обновил, звук исправлен
Не в сети
Профиль  
 Добавлено: 2013-09-07 13:27 (спустя 14 часов)
Стаж: 7 лет 5 месяцев
Сообщений: 25

krazz:

Enic, да, проблемы со звуком в конце фильма около 2 минут были
Торрент обновил, звук исправлен
Значит надо по новому фильм скачивать ,чтоб проблем со звуком не было?
Не в сети
Профиль  
 Добавлено: 2013-09-07 14:44 (спустя 1 час 17 минут)
Аватара пользователя
Стаж: 9 лет
Сообщений: 167
Спасибок: 38
пож выставте в полном фул ашди
Не в сети
Профиль  
 Добавлено: 2013-09-08 14:45 (спустя 1 день)
Аватара пользователя
Стаж: 8 лет 10 месяцев
Сообщений: 19
Фильм очень понравился!!! :bra_vo: Спасибо
Не в сети
Профиль  
 Добавлено: 2013-09-11 19:25 (спустя 3 дня)
Аватара пользователя
Стаж: 8 лет 5 месяцев
Сообщений: 188
Спасибок: 242
Лайков: 11
а почему перевод не прокатный-в кинотеатре другой текст был намного веселей, хотя голоса вроде те же?
Не в сети
Профиль  
 Добавлено: 2013-09-12 13:16 (спустя 17 часов)
Аватара пользователя
Стаж: 8 лет 11 месяцев
Возраст: 29
Сообщений: 5347
Спасибок: 311
Не понравился фильм, через чур затянут.
_________________
Маленький Жып на drive2!
Мои игрушки
Intel Pentium D [915 3.0Ghz/GA-8I945PLGE-RH/3Gb Samsung DDR2 6400/Zotac 8800GT CoolVIVA/2Tb WD Green EARX/160Gb Seagate/80Gb WD/Pioneer DVR-108/17" HP1740] - Мой зверь!
Explay Informer 701 [7" 800x480 TFT/CPU 1Ghz BoxChip A10(Cortex A8)/GPU ARM Mali-400/512Mb DDR2/4Gb HDD/1.3Mpx/G-Sensor/3000mah/Wi-Fi b/g/n/Android 4.0.3 Ice Cream Sandwich]
Highscreen Jet Duo [3,2" 320x480 TFT/CPU 800Mhz/GPU Adreno 200/512Mb DDR3/512Mb HDD/2Mpx/G-Sensor/Wi-Fi b/g/Android 2.3]
PlayStation3 160Gb [4.25FW/Resistance3/GoW3/KillZone3/Bulletstorm/InFamous2/Twisted Metall/GT5/Uncharted2/MS:Pacific Rift]
Изображение
Свернуть
PSN Gamer Ranking
Изображение
Свернуть
Не в сети
Профиль  
 Добавлено: 2013-09-21 22:21 (спустя 9 дней)
Аватара пользователя
Стаж: 8 лет 1 месяц
Возраст: 31
Сообщений: 46
Спасибок: 1
почему пишете 1080Р когда написано на 1920х800
Не в сети
Профиль  
 Добавлено: 2013-09-29 22:27 (спустя 8 дней)
Стаж: 7 лет 7 месяцев
Сообщений: 13
ДЕРЬМО РЕДКОСТНОЕ!
Не в сети
Профиль  
Начать новую темуОтветить на тему  [ Сообщений: 10 ] 
Вы не можете начинать темы
Вы не можете отвечать на сообщения
Вы не можете редактировать свои сообщения
Вы не можете удалять свои сообщения