Правила форума

  • В этом разделе создание новых тем Запрещено.
  • Для создания новых тем пользуйтесь Корневым разделом DVD и HD фильмы.
Начать новую темуОтветить на тему  [ 1 сообщение ] 
Торрент файл
Размер: 14.44 GB • Зарегистрирован: 3 года 10 месяцев • Статус: Проверено
Скачан: 29 раз • Желающих скачать: 0 • Поблагодарили: 8 раз
 Раздают: 1  |  0 KB/s  ]   Качают: 0  |  0 KB/s  ] 
Сообщения
 Добавлено: 2013-02-02 17:23
Модератор
Аватара пользователя
Стаж: 8 лет 7 месяцев
Сообщений: 4965
Спасибок: 110254
Лайков: 18
Изображение

Крученый мяч / Trouble with the Curve


Год выпуска: 2012
Страна: США
Слоган:
«Whatever Life Throws at You»


Жанр: драма
Продолжительность: 01:51:12
Перевод: Профессиональный (многоголосый) [студия «Омикрон»]
Субтитры: English, French, Portuguese, Spanish
Режиссер: Роберт Лоренц / Robert Lorenz
Сценарий: Рэнди Браун / Randy Brown
Продюсер: Клинт Иствуд / Clint Eastwood, Роберт Лоренц / Robert Lorenz, Мишель Вейслер / Michele Weisler, Тим Мур / Tim Moore
Оператор: Том Стерн / Tom Stern
Композитор: Марко Белтрами / Marco Beltrami

В ролях: Клинт Иствуд (Gus), Джастин Тимберлэйк (Johnny), Эми Адамс (Mickey), Джон Гудмен (Pete Klein), Боб Гантон (Watson), Мэттью Лиллард (Phillip Sanderson), Роберт Патрик (Vince), Челси Росс (Smitty), Джордж Уайнер (Rosenbloom), Эд Лотер (Max), Рэймонд Энтони Томас (Lucious), Клифтон Гутерман (Neil)
Сборы в США: $35 763 137

Мировая премьера: 19 сентября 2012
Релиз на DVD: 21 марта 2013, «CP Дистрибуция»
Релиз на Blu-ray: 21 марта 2013, «CP Дистрибуция»
Описание:История пожилого бейсбольного скаута. Герой постепенно теряет зрение и вместе с дочерью в последний раз отправляется на поиски будущих звезд бейсбола.
Изображение 6.7/10 (14,470 users) Изображение 7.088 (915)
MPAA: Изображение - Детям до 13 лет просмотр не желателен
Релиз группы: Изображение
Раздача группы: Изображение
Рип от CRiSC! ;)
Русская дорожка получена наложением чистого голоса.
Сохранены оригинальные чаптеры как на Blu-ray.

Качество: BDRip 1080р
Формат: MKV

Видео: 1920x800 at 23.976 fps, x264, ~15510 kbps avg
Аудио №1: Russian: 48 kHz, DTS, 3/2 (L,C,R,l,r) + LFE ch, ~1536.00 kbps avg |Двухголосый закадровый, студия «Омикрон»|
Аудио №2: English: 48 kHz, AC3, 3/2 (L,C,R,l,r) + LFE ch, ~640.00 kbps avg
"NFO"
Format : Matroska
File size : 14.4 GiB
Duration : 1h 51mn
Overall bit rate : 18.6 Mbps
Movie name : Trouble with the Curve (2012) - Release for HDCLUB
Encoded date : UTC 2013-02-01 14:21:18
Writing application : mkvmerge v3.2.0 ('Beginnings') built on Feb 12 2010 16:46:17
Writing library : libebml v0.7.9 + libmatroska v0.8.1

Video
ID : 1
Format : AVC
Format/Info : Advanced Video Codec
Format profile : High@L4.1
Format settings, CABAC : Yes
Format settings, ReFrames : 5 frames
Codec ID : V_MPEG4/ISO/AVC
Duration : 1h 51mn
Bit rate : 15.2 Mbps
Width : 1 920 pixels
Height : 800 pixels
Display aspect ratio : 2.40:1
Frame rate : 23.976 fps
Color space : YUV
Chroma subsampling : 4:2:0
Bit depth : 8 bits
Scan type : Progressive
Bits/(Pixel*Frame) : 0.413
Stream size : 11.8 GiB (82%)
Title : Trouble with the Curve (2012)
Writing library : x264 core 129 r2230kMod 1cffe9f
Encoding settings : cabac=1 / ref=5 / deblock=1:-3:-3 / analyse=0x3:0x133 / me=umh / subme=11 / psy=1 / fade_compensate=0.00 / psy_rd=0.90:0.00 / mixed_ref=1 / me_range=64 / chroma_me=1 / trellis=2 / 8x8dct=1 / cqm=0 / deadzone=21,11 / fast_pskip=0 / chroma_qp_offset=-2 / threads=12 / lookahead_threads=2 / sliced_threads=0 / nr=0 / decimate=0 / interlaced=0 / bluray_compat=0 / constrained_intra=0 / bframes=11 / b_pyramid=2 / b_adapt=2 / b_bias=0 / direct=1 / weightb=1 / open_gop=0 / weightp=2 / keyint=250 / keyint_min=23 / scenecut=40 / intra_refresh=0 / rc_lookahead=40 / rc=crf / mbtree=0 / crf=17.0000 / qcomp=0.80 / qpmin=0 / qpmax=69 / qpstep=4 / vbv_maxrate=50000 / vbv_bufsize=62500 / crf_max=0.0 / nal_hrd=none / ip_ratio=1.40 / pb_ratio=1.30 / aq=1:0.80
Language : English
Color primaries : BT.709-5, BT.1361, IEC 61966-2-4, SMPTE RP177
Transfer characteristics : BT.709-5, BT.1361
Matrix coefficients : BT.709-5, BT.1361, IEC 61966-2-4 709, SMPTE RP177

Audio #1
ID : 2
Format : DTS
Format/Info : Digital Theater Systems
Codec ID : A_DTS
Duration : 1h 51mn
Bit rate mode : Constant
Bit rate : 1 510 Kbps
Channel(s) : 6 channels
Channel positions : Front: L C R, Side: L R, LFE
Sampling rate : 48.0 KHz
Bit depth : 24 bits
Compression mode : Lossy
Stream size : 1.17 GiB (8%)
Title : DTS 5.1 @ 1536 kbps - MVO, OMiCRON
Language : Russian

Audio #2
ID : 3
Format : DTS
Format/Info : Digital Theater Systems
Codec ID : A_DTS
Duration : 1h 51mn
Bit rate mode : Constant
Bit rate : 1 510 Kbps
Channel(s) : 6 channels
Channel positions : Front: L C R, Side: L R, LFE
Sampling rate : 48.0 KHz
Bit depth : 24 bits
Compression mode : Lossy
Stream size : 1.17 GiB (8%)
Title : DTS 5.1 @ 1536 kbps
Language : English

Text #1
ID : 4
Format : UTF-8
Codec ID : S_TEXT/UTF8
Codec ID/Info : UTF-8 Plain Text
Language : English

Text #2
ID : 5
Format : PGS
Codec ID : S_HDMV/PGS
Codec ID/Info : The same subtitle format used on BDs/HD-DVDs
Language : English

Text #3
ID : 6
Format : PGS
Codec ID : S_HDMV/PGS
Codec ID/Info : The same subtitle format used on BDs/HD-DVDs
Language : French

Text #4
ID : 7
Format : PGS
Codec ID : S_HDMV/PGS
Codec ID/Info : The same subtitle format used on BDs/HD-DVDs
Language : Portuguese

Text #5
ID : 8
Format : PGS
Codec ID : S_HDMV/PGS
Codec ID/Info : The same subtitle format used on BDs/HD-DVDs
Language : Spanish

Menu
00:00:00.000 : en:00:00:00.000
00:09:28.943 : en:00:09:28.943
00:19:15.237 : en:00:19:15.237
00:34:47.752 : en:00:34:47.752
00:48:00.002 : en:00:48:00.002
00:59:23.310 : en:00:59:23.310
01:13:24.025 : en:01:13:24.025
01:25:24.995 : en:01:25:24.995
01:37:01.441 : en:01:37:01.441
01:44:19.378 : en:01:44:19.378
Свернуть
"Знаете ли Вы, что..."
  • Это первый фильм с участием Клинта Иствуда в качестве актера, который он не режиссировал лично, со времен «На линии огня» Вольфганга Петерсена (1993).
  • На главную женскую роль рассматривалась Сандра Буллок.
Свернуть

"Скриншоты"


Изображение

Изображение

Изображение

Свернуть
_________________
Изображение Изображение Изображение
Билайн / АДС добавляйте ретрекер, чтобы качать на скорости 100 Мбит/с
Cкрытый текст
Изображение
Свернуть
Не в сети
Профиль  
Начать новую темуОтветить на тему  [ 1 сообщение ] 
Вы не можете начинать темы
Вы не можете отвечать на сообщения
Вы не можете редактировать свои сообщения
Вы не можете удалять свои сообщения