Правила форума

  • В этом разделе создание новых тем Запрещено.
  • Для создания новых тем пользуйтесь Корневым разделом DVD и HD фильмы.
Начать новую темуОтветить на тему  [ Сообщений: 4 ] 
Торрент файл
Размер: 13.54 GB • Зарегистрирован: 3 года 9 месяцев • Статус: Проверено
Скачан: 120 раз • Желающих скачать: 0 • Поблагодарили: 38 раз
 Раздают: 0  |  0 KB/s  ]   Качают: 0  |  0 KB/s  ] 
 Полного источника не было 2 года 1 месяц 
Сообщения
 Добавлено: 2013-02-28 10:26
Аватара пользователя
Стаж: 9 лет 1 месяц
Сообщений: 7929
Спасибок: 122130
Лайков: 1191
Крученый мяч / Trouble with the Curve

«Whatever Life Throws at You»

Изображение


Год выпуска: 2012
Страна: Изображение США
Жанр: драма
Продолжительность: 01:51:12
Субтитры: Русские, английские, французские, португальские, испанские
Перевод: Профессиональный (многоголосый, закадровый) [Лицензия] + Профессиональный (двухголосый, закадровый) [«Омикрон»]


Режиссёр: Роберт Лоренц
Сценарист: Рэнди Браун
Продюсер: Клинт Иствуд, Роберт Лоренц, Мишель Вейслер
Оператор: Том Стерн
Композитор: Марко Белтрами

В ролях: Клинт Иствуд, Джастин Тимберлэйк, Эми Адамс, Джон Гудмен, Боб Гантон, Мэттью Лиллард, Роберт Патрик, Челси Росс, Джордж Уайнер, Эд Лотер

Описание: История пожилого бейсбольного скаута. Герой постепенно теряет зрение и вместе с дочерью в последний раз отправляется на поиски будущих звезд бейсбола.

Изображение Изображение

Качество: BDRip (1080p)
Формат: Matroska
Видео: MPEG-4 AVC, 15.5 Мбит/с, 1920x800, 23,976 кадра/сек
Аудио №1: Русский (AC3, 48,0 КГц, 6 ch, 640 Кбит/с) Лицензия
Аудио №2: Русский (AC3, 48,0 КГц, 6 ch, 640 Кбит/с) «Омикрон»
Аудио №3: Английский (AC3, 48,0 КГц, 6 ch, 640 Кбит/с)

MediaInfo
Общее
Уникальный идентификатор : 192293531474701717540857069871548693917 (0x90AA6314EA9CAC8097A49573A3697D9D)
Полное имя : C:\Фильмы\Trouble.with.the.Curve.2012.1080р.BluRay.Rus.Eng.nntt.org.mkv
Формат : Matroska
Версия формата : Version 2
Размер файла : 13,5 Гбайт
Продолжительность : 1 ч. 51 м.
Общий поток : 17,4 Мбит/сек
Название фильма : nntt
Дата кодирования : UTC 2013-02-28 06:53:41
Программа кодирования : mkvmerge v5.7.0 ('The Whirlwind') built on Jul 29 2012 15:12:35
Библиотека кодирования : libebml v1.2.3 + libmatroska v1.3.0

Видео
Идентификатор : 1
Формат : AVC
Формат/Информация : Advanced Video Codec
Профиль формата : High@L4.1
Параметр CABAC формата : Да
Параметр ReFrames формата : 5 кадров
Идентификатор кодека : V_MPEG4/ISO/AVC
Продолжительность : 1 ч. 51 м.
Битрейт : 15,2 Мбит/сек
Ширина : 1920 пикселей
Высота : 800 пикселей
Соотношение сторон : 2,40:1
Режим частоты кадров : Постоянный
Частота кадров : 23,976 кадра/сек
Цветовое пространство : YUV
Субдискретизация насыщенности : 4:2:0
Битовая глубина : 8 бит
Тип развёртки : Прогрессивная
Бит/(Пиксели*Кадры) : 0.412
Размер потока : 11,8 Гбайт (87%)
Заголовок : Trouble with the Curve (2012)
Библиотека кодирования : x264 core 129 r2230kMod 1cffe9f
Настройки программы : cabac=1 / ref=5 / deblock=1:-3:-3 / analyse=0x3:0x133 / me=umh / subme=11 / psy=1 / fade_compensate=0.00 / psy_rd=0.90:0.00 / mixed_ref=1 / me_range=64 / chroma_me=1 / trellis=2 / 8x8dct=1 / cqm=0 / deadzone=21,11 / fast_pskip=0 / chroma_qp_offset=-2 / threads=12 / lookahead_threads=2 / sliced_threads=0 / nr=0 / decimate=0 / interlaced=0 / bluray_compat=0 / constrained_intra=0 / bframes=11 / b_pyramid=2 / b_adapt=2 / b_bias=0 / direct=1 / weightb=1 / open_gop=0 / weightp=2 / keyint=250 / keyint_min=23 / scenecut=40 / intra_refresh=0 / rc_lookahead=40 / rc=crf / mbtree=0 / crf=17.0000 / qcomp=0.80 / qpmin=0 / qpmax=69 / qpstep=4 / vbv_maxrate=50000 / vbv_bufsize=62500 / crf_max=0.0 / nal_hrd=none / ip_ratio=1.40 / pb_ratio=1.30 / aq=1:0.80
Язык : English
Default : Нет
Forced : Нет
Основные цвета : BT.709
Характеристики трансфера : BT.709
Коэффициенты матрицы : BT.709

Аудио #1
Идентификатор : 2
Формат : AC-3
Формат/Информация : Audio Coding 3
Расширение режима : CM (complete main)
Параметр Endianness формата : Big
Идентификатор кодека : A_AC3
Продолжительность : 1 ч. 51 м.
Вид битрейта : Постоянный
Битрейт : 640 Кбит/сек
Каналы : 6 каналов
Расположение каналов : Front: L C R, Side: L R, LFE
Частота : 48,0 КГц
Битовая глубина : 16 бит
Метод сжатия : С потерями
Размер потока : 509 Мбайт (4%)
Заголовок : DD 5.1 @ 640 kbps - MVO, BD CEE
Язык : Russian
Default : Да
Forced : Да

Аудио #2
Идентификатор : 3
Формат : AC-3
Формат/Информация : Audio Coding 3
Расширение режима : CM (complete main)
Параметр Endianness формата : Big
Идентификатор кодека : A_AC3
Продолжительность : 1 ч. 51 м.
Вид битрейта : Постоянный
Битрейт : 640 Кбит/сек
Каналы : 6 каналов
Расположение каналов : Front: L C R, Side: L R, LFE
Частота : 48,0 КГц
Битовая глубина : 16 бит
Метод сжатия : С потерями
Размер потока : 509 Мбайт (4%)
Заголовок : DD 5.1 @ 640 kbps - MVO, OMiCRON
Язык : Russian
Default : Нет
Forced : Нет

Аудио #3
Идентификатор : 4
Формат : AC-3
Формат/Информация : Audio Coding 3
Расширение режима : CM (complete main)
Параметр Endianness формата : Big
Идентификатор кодека : A_AC3
Продолжительность : 1 ч. 51 м.
Вид битрейта : Постоянный
Битрейт : 640 Кбит/сек
Каналы : 6 каналов
Расположение каналов : Front: L C R, Side: L R, LFE
Частота : 48,0 КГц
Битовая глубина : 16 бит
Метод сжатия : С потерями
Размер потока : 509 Мбайт (4%)
Заголовок : DD 5.1 @ 640 kbps
Язык : English
Default : Нет
Forced : Нет

Текст #1
Идентификатор : 5
Формат : UTF-8
Идентификатор кодека : S_TEXT/UTF8
Идентификатор кодека/Информация : UTF-8 Plain Text
Заголовок : Forced
Язык : Russian
Default : Нет
Forced : Нет

Текст #2
Идентификатор : 6
Формат : UTF-8
Идентификатор кодека : S_TEXT/UTF8
Идентификатор кодека/Информация : UTF-8 Plain Text
Язык : Russian
Default : Нет
Forced : Нет

Текст #3
Идентификатор : 7
Формат : UTF-8
Идентификатор кодека : S_TEXT/UTF8
Идентификатор кодека/Информация : UTF-8 Plain Text
Язык : English
Default : Нет
Forced : Нет

Текст #4
Идентификатор : 8
Формат : UTF-8
Идентификатор кодека : S_TEXT/UTF8
Идентификатор кодека/Информация : UTF-8 Plain Text
Язык : French
Default : Нет
Forced : Нет

Текст #5
Идентификатор : 9
Формат : UTF-8
Идентификатор кодека : S_TEXT/UTF8
Идентификатор кодека/Информация : UTF-8 Plain Text
Язык : Portuguese
Default : Нет
Forced : Нет

Текст #6
Идентификатор : 10
Формат : UTF-8
Идентификатор кодека : S_TEXT/UTF8
Идентификатор кодека/Информация : UTF-8 Plain Text
Язык : Spanish
Default : Нет
Forced : Нет

Меню
00:00:00.000 : en:00:00:00.000
00:09:28.943 : en:00:09:28.943
00:19:15.237 : en:00:19:15.237
00:34:47.752 : en:00:34:47.752
00:48:00.002 : en:00:48:00.002
00:59:23.310 : en:00:59:23.310
01:13:24.025 : en:01:13:24.025
01:25:24.995 : en:01:25:24.995
01:37:01.441 : en:01:37:01.441
01:44:19.378 : en:01:44:19.378
Свернуть
Знаете ли вы, что...
Это первый фильм с участием Клинта Иствуда в качестве актера, который он не режиссировал лично, со времен «На линии огня» Вольфганга Петерсена (1993).

На главную женскую роль рассматривалась Сандра Буллок.

Свернуть
Скриншоты
Изображение
Изображение
Изображение
Изображение
Изображение
Свернуть


Последний раз редактировалось krazz 2013-02-28 11:11, всего редактировалось 1 раз.
Не в сети
Профиль  
 Добавлено: 2013-02-28 10:56 (спустя 30 минут)
Аватара пользователя
Стаж: 6 лет 9 месяцев
Сообщений: 23
Интересно? А что это за скрины такие? :(
Не в сети
Профиль  
 Добавлено: 2013-02-28 11:05 (спустя 9 минут)
Аватара пользователя
Стаж: 9 лет 1 месяц
Сообщений: 7929
Спасибок: 122130
Лайков: 1191
мде, сорри, через минутку поправлю
Не в сети
Профиль  
 Добавлено: 2013-03-01 14:17 (спустя 1 день 3 часа)
Кинокомментатор
Аватара пользователя
Стаж: 9 лет 1 месяц
Сообщений: 1331
Лайков: 52
это крутое кино!) люблю неспешную крутость Иствуда... у него реально надо учиться;) Тимберлейк должен сказать ему спасибо! шикарное кино!) люблю когда ослы получаюют по заслугам:) и так хочется быть хорошим!)
смотреть всем!
8/10
_________________
Я ВКонтакте
Не в сети
Профиль  
Начать новую темуОтветить на тему  [ Сообщений: 4 ] 
Вы не можете начинать темы
Вы не можете отвечать на сообщения
Вы не можете редактировать свои сообщения
Вы не можете удалять свои сообщения