Правила форума

  • В этом разделе создание новых тем Запрещено.
  • Для создания новых тем пользуйтесь Корневым разделом DVD и HD фильмы.
Начать новую темуОтветить на тему  [ Сообщений: 2 ] 
Торрент файл
Размер: 4.65 GB • Зарегистрирован: 2 года 8 месяцев • Статус: T Временный релиз
Скачан: 36 раз • Желающих скачать: 0 • Поблагодарили: 17 раз
 Раздают: 0  |  0 KB/s  ]   Качают: 0  |  0 KB/s  ] 
 Полного источника не было 1 год 4 месяца 
Сообщения
 Добавлено: 2014-04-04 22:37
Книголюб
Аватара пользователя
Стаж: 7 лет 2 месяца
Сообщений: 2823
Спасибок: 48825
Лайков: 73
Крутые чуваки
Bad Asses

Изображение


Год выпуска: 2014
Страна: США (Sense and Sensibility Ventures, Silver Nitrate Films)
Жанр: боевик
Продолжительность: 01:30:40
Перевод: Любительский (одноголосый закадровый)

Режиссёр: Крэйг Мосс
В ролях: Дэнни Трехо, Дэнни Гловер, Эндрю Дивофф, Жаклин Обрадорс, Софи Ди, Данте Баско, Джонатан Липники, Чарли Карвер, Сара Дюмон, Игнасио Серричио
Описание: Френк Вега возвращается, что бы надрать задницы наркоторговцам, заполонивших Лос-Анджелес. И в этом непростом деле ему поможет верный друг Берни!
Рейтинг MPAA: Рейтинг R (Подростки до 17 лет допускаются на фильм только в сопровождении одного из родителей)
Мировая премьера: 8 апреля 2014

Качество: BDRip 720p
Формат: MKV
Видео кодек: H.264
Видео: 1280x720 23.976fps 5 387 Kbps
Аудио #1: RUS: Dolby AC3 48000Hz 6ch 448kbps
Аудио #2: ENG: DTS 48000Hz 6ch 1 509 Kbps
MediaInfo
General
Unique ID : 220195241174210188054507316067924647248 (0xA5A80F9472E0D81E8840C8B370171D50)
Complete name : K:\Torrent\Bad.Asses.2014.Blu.Ray.720p.CINEMANIA.mkv
Format : Matroska
Format version : Version 4 / Version 2
File size : 4.65 GiB
Duration : 1h 30mn
Overall bit rate : 7 343 Kbps
Movie name : Release Group CINEMANIA
Encoded date : UTC 2014-04-02 20:53:08
Writing application : mkvmerge v6.8.0 ('Theme for Great Cities') 64bit built on Mar 2 2014 21:34:26
Writing library : libebml v1.3.0 + libmatroska v1.4.1

Video
ID : 1
Format : AVC
Format/Info : Advanced Video Codec
Format profile : High@L4.1
Format settings, CABAC : Yes
Format settings, ReFrames : 5 frames
Codec ID : V_MPEG4/ISO/AVC
Duration : 1h 30mn
Bit rate : 5 387 Kbps
Width : 1 280 pixels
Height : 720 pixels
Display aspect ratio : 16:9
Frame rate mode : Constant
Frame rate : 23.976 fps
Color space : YUV
Chroma subsampling : 4:2:0
Bit depth : 8 bits
Scan type : Progressive
Bits/(Pixel*Frame) : 0.244
Stream size : 3.32 GiB (71%)
Title : Release Group CINEMANIA
Writing library : x264 core 140 r2377 1ca7bb9
Encoding settings : cabac=1 / ref=5 / deblock=1:0:0 / analyse=0x3:0x133 / me=umh / subme=7 / psy=1 / psy_rd=1.00:0.00 / mixed_ref=1 / me_range=16 / chroma_me=1 / trellis=1 / 8x8dct=1 / cqm=0 / deadzone=21,11 / fast_pskip=0 / chroma_qp_offset=-2 / threads=12 / lookahead_threads=2 / sliced_threads=0 / nr=0 / decimate=1 / interlaced=0 / bluray_compat=0 / constrained_intra=0 / bframes=3 / b_pyramid=2 / b_adapt=1 / b_bias=0 / direct=1 / weightb=1 / open_gop=0 / weightp=2 / keyint=250 / keyint_min=23 / scenecut=40 / intra_refresh=0 / rc_lookahead=40 / rc=2pass / mbtree=1 / bitrate=5387 / ratetol=1.0 / qcomp=0.60 / qpmin=0 / qpmax=69 / qpstep=4 / cplxblur=20.0 / qblur=0.5 / ip_ratio=1.40 / aq=1:1.00
Language : English
Default : Yes
Forced : No

Audio #1
ID : 2
Format : AC-3
Format/Info : Audio Coding 3
Mode extension : CM (complete main)
Format settings, Endianness : Big
Codec ID : A_AC3
Duration : 1h 30mn
Bit rate mode : Constant
Bit rate : 448 Kbps
Channel(s) : 6 channels
Channel positions : Front: L C R, Side: L R, LFE
Sampling rate : 48.0 KHz
Bit depth : 16 bits
Compression mode : Lossy
Stream size : 291 MiB (6%)
Title : datynet
Language : Russian
Default : Yes
Forced : Yes

Audio #2
ID : 3
Format : DTS
Format/Info : Digital Theater Systems
Mode : 16
Format settings, Endianness : Big
Codec ID : A_DTS
Duration : 1h 30mn
Bit rate mode : Constant
Bit rate : 1 509 Kbps
Channel(s) : 6 channels
Channel positions : Front: L C R, Side: L R, LFE
Sampling rate : 48.0 KHz
Bit depth : 24 bits
Compression mode : Lossy
Stream size : 979 MiB (21%)
Language : English
Default : No
Forced : No

Text
ID : 4
Format : UTF-8
Codec ID : S_TEXT/UTF8
Codec ID/Info : UTF-8 Plain Text
Language : English
Default : No
Forced : No

Menu
00:00:00.000 : en:00:00:00.000
00:03:38.927 : en:00:03:38.927
00:07:04.257 : en:00:07:04.257
00:09:13.553 : en:00:09:13.553
00:12:27.622 : en:00:12:27.622
00:15:19.710 : en:00:15:19.710
00:17:30.883 : en:00:17:30.883
00:21:22.156 : en:00:21:22.156
00:23:09.388 : en:00:23:09.388
00:27:30.190 : en:00:27:30.190
00:30:27.993 : en:00:30:27.993
00:32:47.799 : en:00:32:47.799
00:35:48.938 : en:00:35:48.938
00:40:32.013 : en:00:40:32.013
00:44:04.559 : en:00:44:04.559
00:48:54.140 : en:00:48:54.140
00:51:48.856 : en:00:51:48.856
00:56:14.246 : en:00:56:14.246
00:59:24.853 : en:00:59:24.853
01:01:53.001 : en:01:01:53.001
01:04:39.751 : en:01:04:39.751
01:09:11.856 : en:01:09:11.856
01:11:43.007 : en:01:11:43.007
01:13:54.472 : en:01:13:54.472
01:17:22.012 : en:01:17:22.012
01:19:48.283 : en:01:19:48.283
01:25:25.120 : en:01:25:25.120
01:27:08.014 : en:01:27:08.014


Свернуть

Скриншоты
Изображение
Изображение
Изображение
Свернуть
Не в сети
Профиль  
 Добавлено: 2014-04-05 09:02 (спустя 10 часов)
Модератор
Аватара пользователя
Стаж: 7 лет 9 месяцев
Сообщений: 4521
Спасибок: 112850
Лайков: 583
coldun
поправил BDRip 720p
Не в сети
Профиль  
Начать новую темуОтветить на тему  [ Сообщений: 2 ] 
Вы не можете начинать темы
Вы не можете отвечать на сообщения
Вы не можете редактировать свои сообщения
Вы не можете удалять свои сообщения