Правила форума

  • В этом разделе создание новых тем Запрещено.
  • Для создания новых тем пользуйтесь Корневым разделом DVD и HD фильмы.
Начать новую темуОтветить на тему  [ Сообщений: 7 ] 
Торрент файл
Размер: 7.79 GB • Зарегистрирован: 1 год • Статус: T Временный релиз
Скачан: 144 раза • Желающих скачать: 0 • Поблагодарили: 31 раз
 Раздают: 0  |  0 KB/s  ]   Качают: 0  |  0 KB/s  ] 
 Полного источника не было 1 день 7 часов 
Сообщения
 Добавлено: 2015-11-21 22:20
DVD Release Group
Аватара пользователя
Стаж: 7 лет 1 месяц
Сообщений: 3555
Спасибок: 247206
Лайков: 1018
Кто там?

Knock Knock


Изображение


Год выпуска: 2015
Страна: США, Чили
Жанр: Ужасы, триллер
Продолжительность: 01:39:20
Перевод: Профессиональный (полное дублирование) чистый звук
Режиссер: Элай Рот
В ролях: Киану Ривз, Лоренца Иззо, Ана де Армас, Игнасия Алламанд, Аарон Барнс, Коллин Кэмп
Описание: Отправив семью за город, архитектор Эван остается на выходных дома один доделывать срочный проект. К нему стучатся две милые молодые девушки лет двадцати, насквозь промокшие и заблудившиеся. Эван не мог предположить, что протянутая рука помощи обернется для него чередой изощренных издевательств, изысканных пыток и медленного садистского уничтожения семьи…
Изображение Изображение
Качество: BDRip 1080p
Формат: MKV
Видео кодек: H.264
Аудио кодек: AC3, DTS
Видео: 1920x808 23.98fps 9517kbps
Аудио:
Аудио Rus: AC3 48kHz 2ch 192Kbps
Аудио Eng: DTS 48kHz 6ch 1510Kbps
"MediaInfo"
Формат : Matroska
Версия формата : Version 4 / Version 2
Размер файла : 7,79 Гбайт
Продолжительность : 1 ч. 39 м.
Общий поток : 11,2 Мбит/сек
Дата кодирования : UTC 2015-11-20 19:59:18
Программа кодирования : mkvmerge v8.5.2 ('Crosses') 64bit
Библиотека кодирования : libebml v1.3.3 + libmatroska v1.4.4
DURATION : 01:39:19.542000000
NUMBER_OF_FRAMES : 558707
NUMBER_OF_BYTES : 1124118484
_STATISTICS_WRITING_APP : mkvmerge v8.5.2 ('Crosses') 64bit
_STATISTICS_WRITING_DATE_UTC : 2015-11-20 19:59:18
_STATISTICS_TAGS : BPS DURATION NUMBER_OF_FRAMES NUMBER_OF_BYTES

Видео
Идентификатор : 1
Формат : AVC
Формат/Информация : Advanced Video Codec
Профиль формата : High@L4.1
Параметр CABAC формата : Да
Параметр ReFrames формата : 5 кадров
Идентификатор кодека : V_MPEG4/ISO/AVC
Продолжительность : 1 ч. 39 м.
Битрейт : 9517 Кбит/сек
Ширина : 1920 пикселей
Высота : 808 пикселей
Соотношение сторон : 2,40:1
Режим частоты кадров : Постоянный
Частота кадров : 23,976 кадра/сек
Цветовое пространство : YUV
Субдискретизация насыщенности : 4:2:0
Битовая глубина : 8 бит
Тип развёртки : Прогрессивная
Бит/(Пиксели*Кадры) : 0.256
Размер потока : 6,45 Гбайт (83%)
Заголовок : Po4tA1ioN.Pe4Kin.2015.D.BDRip.1080p.ELEKTRI4KA.uniongang.tv
Библиотека кодирования : x264 core 148 r2597 e86f3a1
Настройки программы : cabac=1 / ref=5 / deblock=1:-1:-1 / analyse=0x3:0x133 / me=umh / subme=7 / psy=1 / psy_rd=1.00:0.00 / mixed_ref=1 / me_range=16 / chroma_me=1 / trellis=1 / 8x8dct=1 / cqm=0 / deadzone=21,11 / fast_pskip=0 / chroma_qp_offset=-2 / threads=25 / lookahead_threads=4 / sliced_threads=0 / nr=0 / decimate=1 / interlaced=0 / bluray_compat=0 / constrained_intra=0 / bframes=3 / b_pyramid=2 / b_adapt=2 / b_bias=0 / direct=3 / weightb=1 / open_gop=0 / weightp=2 / keyint=240 / keyint_min=23 / scenecut=40 / intra_refresh=0 / rc_lookahead=50 / rc=2pass / mbtree=1 / bitrate=9517 / ratetol=1.0 / qcomp=0.60 / qpmin=10 / qpmax=51 / qpstep=4 / cplxblur=20.0 / qblur=0.5 / vbv_maxrate=62500 / vbv_bufsize=78125 / nal_hrd=none / filler=0 / ip_ratio=1.40 / aq=1:1.00
Default : Да
Forced : Нет

Аудио #1
Идентификатор : 2
Формат : AC-3
Формат/Информация : Audio Coding 3
Расширение режима : CM (complete main)
Параметр Endianness формата : Big
Идентификатор кодека : A_AC3
Продолжительность : 1 ч. 39 м.
Вид битрейта : Постоянный
Битрейт : 192 Кбит/сек
Каналы : 2 канала
Расположение каналов : Front: L R
Частота : 48,0 КГц
Битовая глубина : 16 бит
Метод сжатия : С потерями
Размер потока : 136 Мбайт (2%)
Заголовок : Po4tA1ioN.Pe4Kin.2015.D.BDRip.1080p.ELEKTRI4KA.uniongang.tv
Язык : Russian
Default : Да
Forced : Нет

Аудио #2
Идентификатор : 3
Формат : DTS
Формат/Информация : Digital Theater Systems
Режим : 16
Параметр Endianness формата : Big
Идентификатор кодека : A_DTS
Продолжительность : 1 ч. 39 м.
Вид битрейта : Постоянный
Битрейт : 1509 Кбит/сек
Каналы : 6 каналов
Расположение каналов : Front: L C R, Side: L R, LFE
Частота : 48,0 КГц
Битовая глубина : 24 бит
Метод сжатия : С потерями
Размер потока : 1,05 Гбайт (13%)
Заголовок : Po4tA1ioN.Pe4Kin.2015.D.BDRip.1080p.ELEKTRI4KA.uniongang.tv
Язык : English
Default : Нет
Forced : Нет

Текст
Идентификатор : 4
Формат : UTF-8
Идентификатор кодека : S_TEXT/UTF8
Идентификатор кодека/Информация : UTF-8 Plain Text
Заголовок : Po4tA1ioN.Pe4Kin.2015.D.BDRip.1080p.ELEKTRI4KA.uniongang.tv
Язык : Russian
Default : Да
Forced : Да

Меню
00:00:00.000 : en:00:00:00.000
00:06:31.016 : en:00:06:31.016
00:12:59.988 : en:00:12:59.988
00:20:07.248 : en:00:20:07.248
00:27:20.472 : en:00:27:20.472
00:34:42.455 : en:00:34:42.455
00:42:41.934 : en:00:42:41.934
00:52:19.678 : en:00:52:19.678
01:01:50.081 : en:01:01:50.081
01:13:45.796 : en:01:13:45.796
01:25:48.810 : en:01:25:48.810
01:35:01.279 : en:01:35:01.279
Свернуть

"Скриншоты"
Изображение
Изображение
Изображение
Свернуть
Не в сети
Профиль  
 Добавлено: 2015-11-22 01:44 (спустя 3 часа)
Стаж: 8 лет 6 месяцев
Сообщений: 264
Спасибок: 515
Лайков: 14
Объясните невежде, для чего так шифровать название файла?
 Ilmerish нравится это.
Не в сети
Профиль  
 Добавлено: 2015-11-22 08:52 (спустя 7 часов)
DVD Release Group
Аватара пользователя
Стаж: 7 лет 1 месяц
Сообщений: 3555
Спасибок: 247206
Лайков: 1018

Termius:

Объясните невежде, для чего так шифровать название файла?
У вас тоже без энигмы не обошлось. :)
Cкрытый текст
Изображение
Свернуть
Не в сети
Профиль  
 Добавлено: 2015-11-22 13:35 (спустя 4 часа)
Стаж: 8 лет 6 месяцев
Сообщений: 264
Спасибок: 515
Лайков: 14
Misfits - оригинальное англ. название, здесь никакой шифровки. Шифровку я могу понять только как попытку затруднить происки правообладателей. Но, учитывая, что в сообщении присутствует вся информация о выкладываемом файле, действие сие остается за гранью моего уразумения. Я не критикую, просто хочу понять.
Не в сети
Профиль  
 Добавлено: 2015-11-22 18:55 (спустя 5 часов)
Top-seeder
Аватара пользователя
Стаж: 7 лет 6 месяцев
Возраст: 27
Сообщений: 2421
Спасибок: 455
Лайков: 14
потрахал мужик телок :-D
Не в сети
Профиль  
 Добавлено: 2015-11-24 00:05 (спустя 1 день 5 часов)
Аватара пользователя
Стаж: 6 лет 9 месяцев
Возраст: 30
Сообщений: 89
Лайков: 6
фильм класс!
Не в сети
Профиль  
 Добавлено: 2016-01-24 22:18 (спустя 2 месяца)
Аватара пользователя
Стаж: 8 лет 7 месяцев
Сообщений: 230
Спасибок: 168
Лайков: 1
Хорошее кино
Не в сети
Профиль  
Начать новую темуОтветить на тему  [ Сообщений: 7 ] 
Вы не можете начинать темы
Вы не можете отвечать на сообщения
Вы не можете редактировать свои сообщения
Вы не можете удалять свои сообщения