Правила форума

  • В этом разделе создание новых тем Запрещено.
  • Для создания новых тем пользуйтесь Корневым разделом DVD и HD фильмы.
Начать новую темуОтветить на тему  [ 1 сообщение ] 
Торрент файл
Размер: 4.5 GB • Зарегистрирован: 1 год 1 месяц • Статус: T Временный релиз
Скачан: 13 раз • Желающих скачать: 0 • Поблагодарили: 3 раза
 Раздают: 0  |  0 KB/s  ]   Качают: 0  |  0 KB/s  ] 
 Полного источника не было 8 месяцев 
Сообщения
 Добавлено: 2015-10-17 08:09
RG-ELEKTRO
Аватара пользователя
Стаж: 2 года 3 месяца
Сообщений: 7928
Спасибок: 53783
Лайков: 3304
Кто там? / Knock Knock


«Бойся своих желаний»

Изображение


Год выпуска: 2015
Страна: Чили, США (Black Bear Pictures, Camp Grey, Dragonfly Entertainment, Elevated Films (II), Sobras International Pictures)
Жанр: триллер
Продолжительность: 01:39:20
Перевод: Любительский (одноголосый закадровый) [xixidok]

Режиссёр: Элай Рот
В ролях: Киану Ривз, Лоренца Иззо, Ана де Армас, Аарон Барнс, Игнасия Алламанд, Коллин Кэмп, Антонио Куэрча
Описание: Отправив семью за город, архитектор Эван остается на выходных дома один доделывать срочный проект. К нему стучатся две милые молодые девушки лет двадцати, насквозь промокшие и заблудившиеся. Эван не мог предположить, что протянутая рука помощи обернется для него чередой изощренных издевательств, изысканных пыток и медленного садистского уничтожения семьи…

Изображение Изображение
Качество: BDRip 720p
Формат: MKV
Видео кодек: MPEG-4 AVC
Аудио кодек: AC3 / DTS
Видео: MPEG-4 AVC, 4788 kb/s, 1280x536
Аудио #1: AC3, 192 kb/s (2 ch) [Любительский (одноголосый закадровый)]
Аудио #2: English: DTS, 1510 kb/s (6 ch)

"MI"
Format : Matroska
Format version : Version 2
File size : 4.50 GiB
Duration : 1h 39mn
Overall bit rate : 6 481 Kbps
Encoded date : UTC 2015-10-16 22:14:58
Writing application : mkvmerge v7.8.0 ('River Man') 32bit built on Apr 3 2015 12:11:22
Writing library : libebml v1.3.1 + libmatroska v1.4.2

Video
ID : 1
Format : AVC
Format/Info : Advanced Video Codec
Format profile : High@L4.1
Format settings, CABAC : Yes
Format settings, ReFrames : 5 frames
Codec ID : V_MPEG4/ISO/AVC
Duration : 1h 39mn
Bit rate : 4 788 Kbps
Width : 1 280 pixels
Height : 536 pixels
Display aspect ratio : 2.40:1
Frame rate mode : Constant
Frame rate : 23.976 fps
Color space : YUV
Chroma subsampling : 4:2:0
Bit depth : 8 bits
Scan type : Progressive
Bits/(Pixel*Frame) : 0.291
Stream size : 3.23 GiB (72%)
Writing library : x264 core 148 r2597 e86f3a1
Encoding settings : cabac=1 / ref=5 / deblock=1:-1:-1 / analyse=0x3:0x133 / me=umh / subme=7 / psy=1 / psy_rd=1.00:0.00 / mixed_ref=1 / me_range=16 / chroma_me=1 / trellis=1 / 8x8dct=1 / cqm=0 / deadzone=21,11 / fast_pskip=0 / chroma_qp_offset=-2 / threads=6 / lookahead_threads=1 / sliced_threads=0 / nr=0 / decimate=1 / interlaced=0 / bluray_compat=0 / constrained_intra=0 / bframes=3 / b_pyramid=2 / b_adapt=2 / b_bias=0 / direct=3 / weightb=1 / open_gop=0 / weightp=2 / keyint=240 / keyint_min=23 / scenecut=40 / intra_refresh=0 / rc_lookahead=50 / rc=2pass / mbtree=1 / bitrate=4788 / ratetol=1.0 / qcomp=0.60 / qpmin=10 / qpmax=51 / qpstep=4 / cplxblur=20.0 / qblur=0.5 / vbv_maxrate=62500 / vbv_bufsize=78125 / nal_hrd=none / filler=0 / ip_ratio=1.40 / aq=1:1.00
Language : English
Default : Yes
Forced : No

Audio #1
ID : 2
Format : AC-3
Format/Info : Audio Coding 3
Mode extension : CM (complete main)
Format settings, Endianness : Big
Codec ID : A_AC3
Duration : 1h 39mn
Bit rate mode : Constant
Bit rate : 192 Kbps
Channel(s) : 2 channels
Channel positions : Front: L R
Sampling rate : 48.0 KHz
Bit depth : 16 bits
Compression mode : Lossy
Stream size : 136 MiB (3%)
Language : Russian
Default : Yes
Forced : No

Audio #2
ID : 3
Format : DTS
Format/Info : Digital Theater Systems
Mode : 16
Format settings, Endianness : Big
Codec ID : A_DTS
Duration : 1h 39mn
Bit rate mode : Constant
Bit rate : 1 509 Kbps
Channel(s) : 6 channels
Channel positions : Front: L C R, Side: L R, LFE
Sampling rate : 48.0 KHz
Bit depth : 24 bits
Compression mode : Lossy
Stream size : 1.05 GiB (23%)
Language : English
Default : No
Forced : No

Menu
00:00:00.000 : en:00:00:00.000
00:06:31.016 : en:00:06:31.016
00:12:59.988 : en:00:12:59.988
00:20:07.248 : en:00:20:07.248
00:27:20.472 : en:00:27:20.472
00:34:42.455 : en:00:34:42.455
00:42:41.934 : en:00:42:41.934
00:52:19.678 : en:00:52:19.678
01:01:50.081 : en:01:01:50.081
01:13:45.796 : en:01:13:45.796
01:25:48.810 : en:01:25:48.810
01:35:01.279 : en:01:35:01.279
Свернуть

Скриншоты
Изображение
Изображение
Изображение
Свернуть
Изображение


Изображение Изображение
_________________
Не ищите меня в "ВКонтакте", в "Одноклассниках" меня нет - я на трекерах сижу!
Не в сети
Профиль  
Начать новую темуОтветить на тему  [ 1 сообщение ] 
Вы не можете начинать темы
Вы не можете отвечать на сообщения
Вы не можете редактировать свои сообщения
Вы не можете удалять свои сообщения