Правила форума

  • В этом разделе создание новых тем Запрещено.
  • Для создания новых тем пользуйтесь Корневым разделом DVD и HD фильмы.
Начать новую темуОтветить на тему  [ Сообщений: 3 ] 
Торрент файл
Размер: 12.28 GB • Зарегистрирован: 4 года • Статус: Проверено
Скачан: 93 раза • Желающих скачать: 0 • Поблагодарили: 33 раза
 Раздают: 0  |  0 KB/s  ]   Качают: 0  |  0 KB/s  ] 
 Полного источника не было 3 часа 
Сообщения
 Добавлено: 2012-11-22 13:15
Модератор
Аватара пользователя
Стаж: 9 лет
Сообщений: 3446
Спасибок: 1556
Лайков: 77
Куда приводят мечты / What Dreams May Come

Изображение


Год выпуска: 1998
Страна: США, Новая Зеландия
Жанр: фэнтези, драма, мелодрама
Продолжительность: 01:53:43
Перевод: Профессиональный (дубляж) + Авторский одноголосый ({А.Кашкин}) + Оригинальная звуковая дорожка
Субтитры: Русские, Английские

Режиссёр: Винсент Уорд / Vincent Ward
В ролях: Робин Уильямс (Chris Nielsen), Кьюба Гудинг мл. (Albert Lewis,), Аннабелла Шиорра (Annie Collins-Nielsen), Макс фон Сюдов (The Tracker), Джессика Брукс Грант (Marie Nielsen), Джош Пэддок (Ian Nielsen), Розалинд Чао (Leona), Люсинда Дженни (Mrs. Jacobs), Мэгги МакКарти (Stacey Jacobs), Уильма Бонет (Angie), Мэтт Сэлинджер (Reverend Hanley), Кэрин Спрэг (Best Friend Cindy)
Описание: После гибели Криса Нилсена в автокатастрофе он, обретя бессмертие, пытается остаться рядом со своей прекрасной, но смертной женой Энни. С помощью дружественного духа, приставленного к нему в качестве проводника, он начинает привыкать к своему новому существованию в окружении, которое иначе как райским не назовешь. Но когда его обезумевшая от горя жена кончает жизнь самоубийством, ее проклинают и навечно изгоняют в ад. Крис изо всех сил пытается отыскать любимую, чтобы всегда быть с ней, но еще никому и никогда не удавалось спасти грешную душу от ужасного, но заслуженного возмездия. Благодаря помощи своих небесных друзей Крис отправляется в самое опасное и мучительное путешествие в своей жизни, точнее, в жизни после смерти.


Качество:BDRip/1080p
Видео: 1920x816, AVC, 23,976 fps, 12001 kbps
Аудио #1: русский / AC3 / 5.1 / 48 kHz / 448 kbps / 16 bit [Профессиональный (дубляж)]
Аудио #2: русский / DTS / 5.1 / 48 kHz / 1510 kbps / 24 bit [Авторский одноголосый ({А.Кашкин})]
Аудио #3: английский / DTS / 5.1 / 48 kHz / 1510 kbps / 24 bit [Оригинальная звуковая дорожка]
Субтитры: Русские, Английские
Скриншоты
Изображение
Изображение
Изображение
Свернуть


Media Info
Формат : Matroska
Версия формата : Version 2
Размер файла : 12,3 Гбайт
Продолжительность : 1 ч. 53 м.
Общий поток : 15,5 Мбит/сек
Название фильма : Куда приводят мечты__What Dreams May Come [1998, BDRip.1080p.Dub.AVO.Eng.Subs]-HQFans
Дата кодирования : UTC 2012-02-01 13:54:38
Программа кодирования : mkvmerge v5.2.1 ('A Far Off Place') built on Jan 2 2012 23:21:10
Библиотека кодирования : libebml v1.2.3 libmatroska v1.3.0

Видео
Идентификатор : 1
Формат : AVC
Формат/Информация : Advanced Video Codec
Профиль формата : High@L4.1
Параметр CABAC формата : Да
Параметр ReFrames формата : 5 кадров
Идентификатор кодека : V_MPEG4/ISO/AVC
Продолжительность : 1 ч. 53 м.
Битрейт : 12,0 Мбит/сек
Ширина : 1920 пикселей
Высота : 816 пикселей
Соотношение сторон : 2,35:1
Частота кадров : 23,976 кадра/сек
Цветовое пространство : YUV
Субдискретизация насыщенности : 4:2:0
Битовая глубина : 8 бит
Тип развёртки : Прогрессивная
Бит/(Пиксели*Кадры) : 0.319
Размер потока : 9,28 Гбайт (76%)
Заголовок : Rip by IBodyB & PatRiOt88@HQFans
Библиотека кодирования : x264 core 120 r2146 bcd41db
Настройки программы : cabac=1 / ref=5 / deblock=1:-3:-3 / analyse=0x3:0x113 / me=umh / subme=11 / psy=1 / psy_rd=1.00:0.10 / mixed_ref=1 / me_range=48 / chroma_me=1 / trellis=2 / 8x8dct=1 / cqm=0 / deadzone=21,11 / fast_pskip=0 / chroma_qp_offset=-3 / threads=12 / sliced_threads=0 / nr=0 / decimate=0 / interlaced=0 / bluray_compat=0 / constrained_intra=0 / bframes=5 / b_pyramid=2 / b_adapt=2 / b_bias=0 / direct=3 / weightb=1 / open_gop=0 / weightp=2 / keyint=240 / keyint_min=22 / scenecut=40 / intra_refresh=0 / rc_lookahead=40 / rc=2pass / mbtree=0 / bitrate=12001 / ratetol=1.0 / qcomp=0.60 / qpmin=0 / qpmax=69 / qpstep=4 / cplxblur=20.0 / qblur=0.5 / vbv_maxrate=40000 / vbv_bufsize=30000 / nal_hrd=none / ip_ratio=1.40 / pb_ratio=1.30 / aq=1:0.80
Язык : English
Default : Да
Forced : Нет
Основные цвета : BT.709-5, BT.1361, IEC 61966-2-4, SMPTE RP177
Характеристики трансфера : BT.709-5, BT.1361
Коэффициенты матрицы : BT.709-5, BT.1361, IEC 61966-2-4 709, SMPTE RP177

Аудио #1
Идентификатор : 2
Формат : AC-3
Формат/Информация : Audio Coding 3
Расширение режима : CM (complete main)
Идентификатор кодека : A_AC3
Продолжительность : 1 ч. 53 м.
Вид битрейта : Постоянный
Битрейт : 448 Кбит/сек
Каналы : 6 каналов
Расположение каналов : Front: L C R, Side: L R, LFE
Частота : 48,0 КГц
Битовая глубина : 16 бит
Метод сжатия : С потерями
Размер потока : 364 Мбайт (3%)
Заголовок : Dub {R5} [AC3 5.1@448kbps/16-bit]
Язык : Russian
Default : Да
Forced : Нет

Аудио #2
Идентификатор : 3
Формат : DTS
Формат/Информация : Digital Theater Systems
Идентификатор кодека : A_DTS
Продолжительность : 1 ч. 53 м.
Вид битрейта : Постоянный
Битрейт : 1510 Кбит/сек
Каналы : 6 каналов
Расположение каналов : Front: L C R, Side: L R, LFE
Частота : 48,0 КГц
Битовая глубина : 24 бит
Метод сжатия : С потерями
Размер потока : 1,20 Гбайт (10%)
Заголовок : AVO {А.Кашкин} [DTS 5.1@1510kbps/24-bit]
Язык : Russian
Default : Нет
Forced : Нет

Аудио #3
Идентификатор : 4
Формат : DTS
Формат/Информация : Digital Theater Systems
Идентификатор кодека : A_DTS
Продолжительность : 1 ч. 53 м.
Вид битрейта : Постоянный
Битрейт : 1510 Кбит/сек
Каналы : 6 каналов
Расположение каналов : Front: L C R, Side: L R, LFE
Частота : 48,0 КГц
Битовая глубина : 24 бит
Метод сжатия : С потерями
Размер потока : 1,20 Гбайт (10%)
Заголовок : Original [DTS 5.1@1510kbps/24-bit]
Язык : English
Default : Нет
Forced : Нет

Текст #1
Идентификатор : 5
Формат : UTF-8
Идентификатор кодека : S_TEXT/UTF8
Идентификатор кодека/Информация : UTF-8 Plain Text
Заголовок : Полные
Язык : Russian
Default : Да
Forced : Нет

Текст #2
Идентификатор : 6
Формат : UTF-8
Идентификатор кодека : S_TEXT/UTF8
Идентификатор кодека/Информация : UTF-8 Plain Text
Заголовок : Full
Язык : English
Default : Нет
Forced : Нет

Меню
00:00:00.000 : :Chapter 01
00:04:59.632 : :Chapter 02
00:07:43.921 : :Chapter 03
00:12:49.101 : :Chapter 04
00:20:04.870 : :Chapter 05
00:24:35.432 : :Chapter 06
00:34:14.844 : :Chapter 07
00:42:08.192 : :Chapter 08
00:51:35.717 : :Chapter 09
00:57:18.435 : :Chapter 10
01:00:12.942 : :Chapter 11
01:04:32.743 : :Chapter 12
01:13:40.541 : :Chapter 13
01:20:04.257 : :Chapter 14
01:23:17.367 : :Chapter 15
01:27:38.002 : :Chapter 16
01:35:24.009 : :Chapter 17
01:43:37.669 : :Chapter 18
01:46:01.354 : :Chapter 19
01:53:43.566 : :Chapter 20
Свернуть
Не в сети
Профиль  
 Добавлено: 2012-11-22 22:31 (спустя 9 часов)
Стаж: 5 лет
Сообщений: 59
спасибо
Не в сети
Профиль  
 Добавлено: 2012-11-25 16:46 (спустя 2 дня 18 часов)
Console V.I.P.
Аватара пользователя
Стаж: 9 лет
Сообщений: 1453
Спасибок: 690
Лайков: 12
Спасибо
_________________
МАСТЕР ПО ИГРОВЫМ КОНСОЛЯМ
ПРОДАЖА И МОДЕРНИЗАЦИЯ ИГРОВЫХ КОНСОЛЕЙ

УСЛУГИ И КОНТАКТЫ (нажать чтобы посмотреть)
icq: 378004868 тел: 89049149337
Не в сети
Профиль  
Начать новую темуОтветить на тему  [ Сообщений: 3 ] 
Вы не можете начинать темы
Вы не можете отвечать на сообщения
Вы не можете редактировать свои сообщения
Вы не можете удалять свои сообщения