Правила форума

  • В этом разделе создание новых тем Запрещено.
  • Для создания новых тем пользуйтесь Корневым разделом DVD и HD фильмы.
Начать новую темуОтветить на тему  [ Сообщений: 4 ] 
Торрент файл
Размер: 10.12 GB • Зарегистрирован: 4 года 9 месяцев • Статус: Проверено
Скачан: 14 раз • Желающих скачать: 0 • Поблагодарили: 3 раза
 Раздают: 0  |  0 KB/s  ]   Качают: 0  |  0 KB/s  ] 
 Полного источника не было 3 года 2 месяца 
Сообщения
 Добавлено: 2012-02-08 12:21
Модератор релиз-группы
Аватара пользователя
Стаж: 9 лет 1 месяц
Возраст: 97
Сообщений: 11659
Спасибок: 6530
Лайков: 269
Кулак легенды / Jing wu ying xiong / Fist of Legend


Изображение



Год выпуска: 1994
Жанр: Боевик, драма
Страна: Гонконг
Продолжительность: 01:43:15
Перевод: Авторский одноголосый

Режиссер: Гордон Чан

В ролях: Джет Ли, Шинобу Накаяма, Сиу-ху Чин, Билли Чоу, Ясуаки Курата, Пол Чун, Ада Чои, Чеунг-Ян Юэнь, Тошимичи Такахачи, Кэрол Там

О фильме: В начале ХХ века во время японской оккупации Китая самураи, кичившиеся своим непобедимым каратэ, жестоко убили миролюбивого учителя кунг-фу Хо. Деморализованный народ даже не помышлял о сопротивлении. Устрашились все, кроме Жень Чена, самого одаренного ученика погибшего мастера. Узнав о случившемся, герой клянется, во что бы то ни стало отомстить убийцам. И когда приходит час возмездия, стонущий под пятой захватчиков Шанхай превращается в поле грандиозной битвы между дерзким одиночкой и сонмом опаснейших врагов. Мастистый режиссер гонконгских боевиков Гордон Чан и хореограф боевых сцен экстра-класса Юэн Ву-Пин ("Матрица", "Крадущийся тигр, затаившийся дракон") представляют вашему вниманию жестокий и виртуозный кунг-фу экшн "Кулак легенды" с человеком-молнией Джетом Ли.
Изображение

Качество: BDRip (1080p)
Формат: mkv
Видео: MPEG-4 AVC, 13.2 Мбит/с, 1920х1080, 23.976 кадр/с
Аудио 1: Pусский (AC3, 2 ch, 192 Кбит/с)
Аудио 2: Aнглийский (AC3, 6 ch, 640 Кбит/с)
скриншоты
Изображение

Изображение

Изображение

Изображение
Свернуть

Mi
Format : Matroska
Format version : Version 1
File size : 10.3 GiB
Duration : 1h 43mn
Overall bit rate : 14.2 Mbps
Encoded date : UTC 2012-02-06 19:30:10
Writing application : mkvmerge v2.1.0 ('Another Place To Fall') built on Aug 19 2007 13:40:07
Writing library : libebml v0.7.7 + libmatroska v0.8.1

Video
ID : 1
Format : AVC
Format/Info : Advanced Video Codec
Format profile : High@L4.1
Format settings, CABAC : Yes
Format settings, ReFrames : 4 frames
Codec ID : V_MPEG4/ISO/AVC
Duration : 1h 43mn
Bit rate : 13.2 Mbps
Width : 1 920 pixels
Height : 1 080 pixels
Display aspect ratio : 16:9
Frame rate : 23.976 fps
Color space : YUV
Chroma subsampling : 4:2:0
Bit depth : 8 bits
Scan type : Progressive
Bits/(Pixel*Frame) : 0.266
Stream size : 9.31 GiB (91%)
Writing library : x264 core 116 r2074 2641b9e
Encoding settings : cabac=1 / ref=3 / deblock=1:0:0 / analyse=0x3:0x133 / me=umh / subme=9 / psy=1 / psy_rd=1.00:0.00 / mixed_ref=1 / me_range=32 / chroma_me=1 / trellis=2 / 8x8dct=1 / cqm=0 / deadzone=21,11 / fast_pskip=0 / chroma_qp_offset=-2 / threads=3 / sliced_threads=0 / nr=0 / decimate=1 / interlaced=0 / bluray_compat=0 / constrained_intra=0 / bframes=6 / b_pyramid=2 / b_adapt=2 / b_bias=0 / direct=3 / weightb=1 / open_gop=0 / weightp=2 / keyint=250 / keyint_min=23 / scenecut=40 / intra_refresh=0 / rc=2pass / mbtree=0 / bitrate=13200 / ratetol=1.0 / qcomp=0.60 / qpmin=0 / qpmax=69 / qpstep=4 / cplxblur=20.0 / qblur=0.5 / ip_ratio=1.40 / pb_ratio=1.30 / aq=1:1.00
Language : English
Default : Yes
Forced : No

Audio #1
ID : 2
Format : AC-3
Format/Info : Audio Coding 3
Mode extension : CM (complete main)
Codec ID : A_AC3
Duration : 1h 43mn
Bit rate mode : Constant
Bit rate : 192 Kbps
Channel(s) : 2 channels
Channel positions : Front: L R
Sampling rate : 48.0 KHz
Bit depth : 16 bits
Compression mode : Lossy
Stream size : 142 MiB (1%)
Language : Russian
Default : Yes
Forced : No

Audio #2
ID : 3
Format : AC-3
Format/Info : Audio Coding 3
Mode extension : CM (complete main)
Codec ID : A_AC3
Duration : 1h 43mn
Bit rate mode : Constant
Bit rate : 640 Kbps
Channel(s) : 6 channels
Channel positions : Front: L C R, Side: L R, LFE
Sampling rate : 48.0 KHz
Bit depth : 16 bits
Compression mode : Lossy
Stream size : 473 MiB (4%)
Language : English
Default : No
Forced : No

Menu
00:00:00.000 : :Chapter 01
00:10:00.599 : :Chapter 02
00:20:01.200 : :Chapter 03
00:30:01.800 : :Chapter 04
00:40:02.400 : :Chapter 05
00:50:03.000 : :Chapter 06
01:00:03.600 : :Chapter 07
01:10:04.200 : :Chapter 08
01:20:04.800 : :Chapter 09
01:30:05.400 : :Chapter 10
01:40:06.000 : :Chapter 11

Свернуть
_________________
Изображение
Не в сети
Профиль  
 Добавлено: 2012-02-08 15:29 (спустя 3 часа)
Top-releaser
Аватара пользователя
Стаж: 8 лет 7 месяцев
Сообщений: 1286
Спасибок: 3420
Лайков: 7
Артурыч можно узнать источник? А то, что-то по скринам на апскейл смахивает. Фильм зачОтный, нравятся боевики с Джетом Ли. Спасибо за раздачу, при возможности обязательно гляну, давно этот фильм не смотрел.
Не в сети
Профиль  
 Добавлено: 2012-02-08 16:04 (спустя 34 минуты)
Модератор релиз-группы
Аватара пользователя
Стаж: 9 лет 1 месяц
Возраст: 97
Сообщений: 11659
Спасибок: 6530
Лайков: 269

Shamman:

можно узнать источник?
HDLine
мне ничего не говорит

Shamman:

А то, что-то по скринам на апскейл смахивает.
иих, научится бы так скейлить :-D
Изображение

Изображение
Свернуть
_________________
Изображение
Не в сети
Профиль  
 Добавлено: 2012-02-08 19:05 (спустя 3 часа)
Top-releaser
Аватара пользователя
Стаж: 8 лет 7 месяцев
Сообщений: 1286
Спасибок: 3420
Лайков: 7

Артурыч:

иих, научится бы так скейлить
:-D

Добавлено спустя 44 секунды:
убедил :)
Не в сети
Профиль  
Начать новую темуОтветить на тему  [ Сообщений: 4 ] 
Вы не можете начинать темы
Вы не можете отвечать на сообщения
Вы не можете редактировать свои сообщения
Вы не можете удалять свои сообщения