Правила форума

  • В этом разделе создание новых тем Запрещено.
  • Для создания новых тем пользуйтесь Корневым разделом DVD и HD фильмы.
Начать новую темуОтветить на тему  [ Сообщений: 2 ] 
Торрент файл
Размер: 9.01 GB • Зарегистрирован: 5 лет 1 месяц • Статус: Проверено
Скачан: 52 раза • Желающих скачать: 0 • Поблагодарили: 10 раз
 Раздают: 0  |  0 KB/s  ]   Качают: 0  |  0 KB/s  ] 
 Полного источника не было 3 года 2 месяца 
Сообщения
 Добавлено: 2011-10-26 16:24
Модератор релиз-группы
Аватара пользователя
Стаж: 9 лет 1 месяц
Возраст: 97
Сообщений: 11659
Спасибок: 6530
Лайков: 269
Курьер / Coursier

Изображение


Страна: Франция
Жанр: комедия, криминал
Год выпуска: 2010
Продолжительность: 01:38:29
Перевод:Профессиональный (многоголосый закадровый)
Оригинальная звуковая дорожка
Cубтитры: русские

Режиссер: Эрве Рено / Herve Renoh

В ролях: Микаэль Юн, Жеральдин Накаш, Джимми Жан-Луи, Дидье Фламан, Каталина Дэнис, Natalia Dontcheva, Lord Kossity, Фредерик Чау, Gianni Giardinelli, Жан-Мари Ламур

Описание: Сэм работает курьером. Он несется по Парижу на своем скутере, нарушая все элементарные правила дорожного движения. И вот настал день, ставший худшим днем в его жизни. В этот злополучный день Сэму необходимо было присутствовать на бракосочетании сестры своей невесты Нади, но босс дает ему срочное поручение. Чем обернется для него это поручение, не могло присниться даже в самом кошмарном сне...
Изображение

Качество: BDRip
Формат: MKV
Видео: 1920x816 at 24.000 fps, x264, ~10,1 Mbps avg
Аудио: Russian: 48 kHz, DTS, 3/2 (L,C,R,l,r) + LFE ch, ~1510.00 kbps avg
Аудио 2: French: 48 kHz, DTS, 3/2 (L,C,R,l,r) + LFE ch, ~1510.00 kbps avg
Cубтитры: русские
Скриншоты
Изображение

Изображение

Изображение

Изображение
Свернуть

Mi
Format : Matroska
Format version : Version 2
File size : 9.01 GiB
Duration : 1h 38mn
Overall bit rate : 13.1 Mbps
Encoded date : UTC 2011-05-17 20:58:31
Writing application : mkvmerge v3.4.0 ('Rapunzel') сборка от May 15 2010 09:38:20
Writing library : libebml v0.8.0 + libmatroska v0.9.0

Video
ID : 1
Format : AVC
Format/Info : Advanced Video Codec
Format profile : High@L4.1
Format settings, CABAC : Yes
Format settings, ReFrames : 4 frames
Codec ID : V_MPEG4/ISO/AVC
Duration : 1h 38mn
Bit rate : 10.1 Mbps
Width : 1 920 pixels
Height : 816 pixels
Display aspect ratio : 2.35:1
Frame rate : 24.000 fps
Color space : YUV
Chroma subsampling : 4:2:0
Bit depth : 8 bits
Scan type : Progressive
Bits/(Pixel*Frame) : 0.268
Stream size : 6.75 GiB (75%)
Writing library : x264 core 98 r1649 c54c47d
Encoding settings : cabac=1 / ref=4 / deblock=1:-3:-3 / analyse=0x3:0x113 / me=umh / subme=9 / psy=1 / psy_rd=1.10:0.00 / mixed_ref=1 / me_range=32 / chroma_me=1 / trellis=2 / 8x8dct=1 / cqm=0 / deadzone=21,11 / fast_pskip=0 / chroma_qp_offset=-4 / threads=6 / sliced_threads=0 / nr=0 / decimate=0 / interlaced=0 / constrained_intra=0 / bframes=6 / b_pyramid=2 / b_adapt=2 / b_bias=0 / direct=3 / weightb=1 / weightp=2 / keyint=250 / keyint_min=25 / scenecut=40 / intra_refresh=0 / rc_lookahead=48 / rc=2pass / mbtree=1 / bitrate=10084 / ratetol=1.0 / qcomp=0.60 / qpmin=10 / qpmax=51 / qpstep=4 / cplxblur=20.0 / qblur=0.5 / ip_ratio=1.40 / aq=1:0.80
Language : English

Audio #1
ID : 2
Format : DTS
Format/Info : Digital Theater Systems
Codec ID : A_DTS
Duration : 1h 38mn
Bit rate mode : Constant
Bit rate : 1 510 Kbps
Channel(s) : 6 channels
Channel positions : Front: L C R, Side: L R, LFE
Sampling rate : 48.0 KHz
Bit depth : 24 bits
Compression mode : Lossy
Stream size : 1.04 GiB (12%)
Language : Russian

Audio #2
ID : 3
Format : DTS
Format/Info : Digital Theater Systems
Codec ID : A_DTS
Duration : 1h 38mn
Bit rate mode : Constant
Bit rate : 1 510 Kbps
Channel(s) : 6 channels
Channel positions : Front: L C R, Side: L R, LFE
Sampling rate : 48.0 KHz
Bit depth : 16 bits
Compression mode : Lossy
Stream size : 1.04 GiB (12%)
Title : 法语
Language : French

Text
ID : 4
Format : UTF-8
Codec ID : S_TEXT/UTF8
Codec ID/Info : UTF-8 Plain Text
Language : Russian

Свернуть
_________________
Изображение
Не в сети
Профиль  
 Добавлено: 2012-01-30 03:57 (спустя 3 месяца 3 дня)
Стаж: 8 лет 11 месяцев
Сообщений: 153
Спасибок: 49
хороший фильм) особенно концовка) 7/10 как комедия и 9/10 как добрый интересный фильм)
Не в сети
Профиль  
Начать новую темуОтветить на тему  [ Сообщений: 2 ] 
Вы не можете начинать темы
Вы не можете отвечать на сообщения
Вы не можете редактировать свои сообщения
Вы не можете удалять свои сообщения
cron