Правила форума

  • В этом разделе создание новых тем Запрещено.
  • Для создания новых тем пользуйтесь Корневым разделом DVD и HD фильмы.
Начать новую темуОтветить на тему  [ Сообщений: 2 ] 
Торрент файл
Размер: 7.98 GB • Зарегистрирован: 4 года 8 месяцев • Статус: T Временный релиз
Скачан: 46 раз • Желающих скачать: 0 • Поблагодарили: 6 раз
 Раздают: 0  |  0 KB/s  ]   Качают: 0  |  0 KB/s  ] 
 Полного источника не было 2 года 10 месяцев 
Сообщения
 Добавлено: 2012-04-06 15:39
Модератор релиз-группы
Аватара пользователя
Стаж: 9 лет 1 месяц
Возраст: 97
Сообщений: 11660
Спасибок: 6534
Лайков: 269
Курьер / The Courier

Изображение


Год выпуска: 2011
Страна: США
Жанр: боевик, триллер, криминал
Продолжительность: 01:35:08
Перевод: Любительский (двухголосый закадровый)
Оригинальная звуковая дорожка

Режиссёр: Хани Абу-Ассад / Hany Abu-Assad
В ролях: Микки Рурк, Джеффри Дин Морган, Тиль Швайгер, Мигель Феррер, Лили Тейлор, Марк Марголис, Джози Хо, Дэвид Дженсен, Том Проктер, Майкл Арата
Описание: В фильме рассказывается об отважном курьере, пытающемся доставить чемоданчик некоему криминальному авторитету, местонахождение которого никому не известно. Выполнить эту миссию курьеру всячески мешают коррумпированные полицейские и представители преступного мира, преследующие его по всей стране.
Изображение

Качество: BDRip 1080p
Формат: mkv
Видео кодек: MPEG-4
Аудио кодек: AC3 (Dolby Digital)
Видео: MPEG 4 AVC (H.264), 1920x812, 23,976 кадр/сек, 10,2 Мбит/сек
Аудио #1: AC-3, 384 Кбит/сек, 6Ch., 48,0 КГц-русский [Любительский (двухголосый закадровый)]
Аудио #2: DTS, 1510 Кбит/сек, 6Ch., 48,0 КГц-английский [Оригинальная звуковая дорожка]
Скриншоты
Изображение
Изображение
Изображение
Свернуть

Mi
Формат : Matroska
Размер файла : 7,98 Гбайт
Продолжительность : 1 ч. 35 м.
Общий поток : 12,0 Мбит/сек
Дата кодирования : UTC 2012-04-03 14:21:17
Программа кодирования : mkvmerge v4.0.0 ('The Stars were mine') сборка от Jun 6 2010 16:18:42
Библиотека кодирования : libebml v1.0.0 + libmatroska v1.0.0

Видео
Идентификатор : 1
Формат : AVC
Формат/Информация : Advanced Video Codec
Профиль формата : High@L4.1
Параметр CABAC формата : Да
Параметр ReFrames формата : 4 кадры
Идентификатор кодека : V_MPEG4/ISO/AVC
Продолжительность : 1 ч. 35 м.
Битрейт : 10,2 Мбит/сек
Ширина : 1920 пикс.
Высота : 812 пикс.
Соотношение сторон : 2,35:1
Частота кадров : 23,976 кадр/сек
Цветовое пространство : YUV
Подвыборка цветности : 4:2:0
Битовая глубина : 8 бит
Тип развёртки : Прогрессивная
Бит/(Пиксели*Кадры) : 0.272
Размер потока : 6,56 Гбайт (82%)
Заголовок : The.Courier.2011.Blu-ray.1080p.x264.DTS.MySilu
Библиотека кодирования : x264 core 122 r2184 5c85e0a
Настройки программы : cabac=1 / ref=4 / deblock=1:-2:-2 / analyse=0x3:0x113 / me=umh / subme=10 / psy=1 / psy_rd=1.20:0.20 / mixed_ref=1 / me_range=32 / chroma_me=1 / trellis=2 / 8x8dct=1 / cqm=0 / deadzone=21,11 / fast_pskip=0 / chroma_qp_offset=-3 / threads=9 / sliced_threads=0 / nr=0 / decimate=0 / interlaced=0 / bluray_compat=0 / constrained_intra=0 / bframes=5 / b_pyramid=2 / b_adapt=2 / b_bias=0 / direct=3 / weightb=1 / open_gop=0 / weightp=2 / keyint=240 / keyint_min=1 / scenecut=40 / intra_refresh=0 / rc_lookahead=72 / rc=2pass / mbtree=1 / bitrate=10176 / ratetol=1.0 / qcomp=0.60 / qpmin=10 / qpmax=51 / qpstep=4 / cplxblur=20.0 / qblur=0.5 / vbv_maxrate=38000 / vbv_bufsize=38000 / nal_hrd=none / ip_ratio=1.40 / aq=1:1.00
Язык : English

Аудио #1
Идентификатор : 2
Формат : AC-3
Формат/Информация : Audio Coding 3
Расширение режима : CM (complete main)
Идентификатор кодека : A_AC3
Продолжительность : 1 ч. 35 м.
Вид битрейта : Постоянный
Битрейт : 384 Кбит/сек
Канал(ы) : 6 канала(ов)
Расположение каналов : Front: L C R, Side: L R, LFE
Частота : 48,0 КГц
Битовая глубина : 16 бит
Метод сжатия : С потерями
Размер потока : 261 Мбайт (3%)
Заголовок : двухголоска
Язык : Russian

Аудио #2
Идентификатор : 3
Формат : DTS
Формат/Информация : Digital Theater Systems
Идентификатор кодека : A_DTS
Продолжительность : 1 ч. 35 м.
Вид битрейта : Постоянный
Битрейт : 1510 Кбит/сек
Канал(ы) : 6 канала(ов)
Расположение каналов : Front: L C R, Side: L R, LFE
Частота : 48,0 КГц
Битовая глубина : 24 бит
Метод сжатия : С потерями
Размер потока : 1,00 Гбайт (13%)
Язык : English
Свернуть
Не в сети
Профиль  
 Добавлено: 2012-04-08 12:53 (спустя 1 день 21 час)
Стаж: 8 лет 1 месяц
Возраст: 28
Сообщений: 10
Спасибок: 1
:-*
Не в сети
Профиль  
Начать новую темуОтветить на тему  [ Сообщений: 2 ] 
Вы не можете начинать темы
Вы не можете отвечать на сообщения
Вы не можете редактировать свои сообщения
Вы не можете удалять свои сообщения