Правила форума

  • В этом разделе создание новых тем Запрещено.
  • Для создания новых тем пользуйтесь Корневым разделом DVD и HD фильмы.
Начать новую темуОтветить на тему  [ Сообщений: 2 ] 
Торрент файл
Размер: 4.61 GB • Зарегистрирован: 1 год 1 месяц • Статус: Проверено
Скачан: 25 раз • Желающих скачать: 0 • Поблагодарили: 2 раза
 Раздают: 0  |  0 KB/s  ]   Качают: 0  |  0 KB/s  ] 
 Полного источника не было 6 месяцев 
Сообщения
 Добавлено: 2015-10-08 08:28
RG-ELEKTRO
Аватара пользователя
Стаж: 2 года 3 месяца
Сообщений: 7928
Спасибок: 53757
Лайков: 3304
Кутис / Cooties



Изображение


Год выпуска: 2014
Страна: США, Россия (Glacier Films, SpectreVision)
Жанр: ужасы, комедия
Продолжительность: 01:28:02
Перевод: Профессиональный (дубляж) [iTunes]

Режиссёр: Джонатан Милотт, Кэри Мернион
В ролях: Элайджа Вуд, Рэйн Уилсон, Элисон Пилл, Джек МакБрайер, Ли Уоннелл, Назим Пэдрад, Иэн Бреннан, Хорхе Гарсиа, Купер Рот, Майлз Эллиот
Описание: В одной частной закрытой школе появился страшный вирус! Маленькие хорошенькие детки в одночасье превратились в адских зомби, которые хотят сожрать своих любимых учителей и одноклассников. Война начинается! И не на жизнь, а на смерть.

Изображение Изображение
Качество: BDRip 720p
Формат: MKV
Видео кодек: MPEG-4 AVC
Аудио кодек: AC3 / DTS
Видео: MPEG-4 AVC, 5570 Кбит/с, 1280x536
Аудио #1: AC3, 384 kb/s (6 ch)
Аудио #2: Немецкий (DTS, 6 ch, 1510 Кбит/с)

"MI"
General
Unique ID : 237903532588069871523798244512129010202 (0xB2FA8DC129C8D1549204013B3E06CA1A)
Complete name : D:\фильмы\K00T1C.2O15.D.BDRip.72Op.mkv
Format : Matroska
Format version : Version 4 / Version 2
File size : 4.61 GiB
Duration : 1h 28mn
Overall bit rate : 7 465 Kbps
Encoded date : UTC 2015-10-08 12:49:27
Writing application : mkvmerge v6.9.1 ('Blue Panther') 64bit built on Apr 18 2014 18:23:38
Writing library : libebml v1.3.0 + libmatroska v1.4.1
DURATION : 01:28:24.768000000
NUMBER_OF_FRAMES : 497322
NUMBER_OF_BYTES : 1000611864
_STATISTICS_WRITING_APP : mkvmerge v8.4.0 ('A better way to fly') 32bit
_STATISTICS_WRITING_DATE_UTC : 2015-10-07 19:52:44
_STATISTICS_TAGS : BPS DURATION NUMBER_OF_FRAMES NUMBER_OF_BYTES

Video
ID : 1
Format : AVC
Format/Info : Advanced Video Codec
Format profile : High@L4.1
Format settings, CABAC : Yes
Format settings, ReFrames : 5 frames
Codec ID : V_MPEG4/ISO/AVC
Duration : 1h 28mn
Bit rate : 5 570 Kbps
Width : 1 280 pixels
Height : 536 pixels
Display aspect ratio : 2.40:1
Frame rate mode : Constant
Frame rate : 23.976 fps
Color space : YUV
Chroma subsampling : 4:2:0
Bit depth : 8 bits
Scan type : Progressive
Bits/(Pixel*Frame) : 0.339
Stream size : 3.35 GiB (73%)
Writing library : x264 core 148 r2597 e86f3a1
Encoding settings : cabac=1 / ref=5 / deblock=1:-1:-1 / analyse=0x3:0x133 / me=umh / subme=7 / psy=1 / psy_rd=1.00:0.00 / mixed_ref=1 / me_range=16 / chroma_me=1 / trellis=1 / 8x8dct=1 / cqm=0 / deadzone=21,11 / fast_pskip=0 / chroma_qp_offset=-2 / threads=6 / lookahead_threads=1 / sliced_threads=0 / nr=0 / decimate=1 / interlaced=0 / bluray_compat=0 / constrained_intra=0 / bframes=3 / b_pyramid=2 / b_adapt=2 / b_bias=0 / direct=3 / weightb=1 / open_gop=0 / weightp=2 / keyint=240 / keyint_min=23 / scenecut=40 / intra_refresh=0 / rc_lookahead=50 / rc=2pass / mbtree=1 / bitrate=5570 / ratetol=1.0 / qcomp=0.60 / qpmin=10 / qpmax=51 / qpstep=4 / cplxblur=20.0 / qblur=0.5 / vbv_maxrate=62500 / vbv_bufsize=78125 / nal_hrd=none / filler=0 / ip_ratio=1.40 / aq=1:1.00
Default : Yes
Forced : No

Audio #1
ID : 2
Format : AC-3
Format/Info : Audio Coding 3
Mode extension : CM (complete main)
Format settings, Endianness : Big
Codec ID : A_AC3
Duration : 1h 28mn
Bit rate mode : Constant
Bit rate : 384 Kbps
Channel(s) : 6 channels
Channel positions : Front: L C R, Side: L R, LFE
Sampling rate : 48.0 KHz
Bit depth : 16 bits
Compression mode : Lossy
Stream size : 243 MiB (5%)
Language : Russian
Default : Yes
Forced : No

Audio #2
ID : 3
Format : DTS
Format/Info : Digital Theater Systems
Mode : 16
Format settings, Endianness : Big
Codec ID : A_DTS
Duration : 1h 28mn
Bit rate mode : Constant
Bit rate : 1 509 Kbps
Channel(s) : 6 channels
Channel positions : Front: L C R, Side: L R, LFE
Sampling rate : 48.0 KHz
Bit depth : 24 bits
Compression mode : Lossy
Stream size : 954 MiB (20%)
Language : English
Default : No
Forced : No

Menu
00:00:00.000 : en:00:00:00.000
00:05:28.078 : en:00:05:28.078
00:09:28.818 : en:00:09:28.818
00:15:02.819 : en:00:15:02.819
00:20:21.178 : en:00:20:21.178
00:26:41.850 : en:00:26:41.850
00:31:55.288 : en:00:31:55.288
00:35:39.721 : en:00:35:39.721
00:43:51.838 : en:00:43:51.838
00:47:38.898 : en:00:47:38.898
00:52:14.590 : en:00:52:14.590
01:01:17.382 : en:01:01:17.382
01:07:51.734 : en:01:07:51.734
01:11:52.225 : en:01:11:52.225
01:17:03.244 : en:01:17:03.244
01:24:14.299 : en:01:24:14.299
01:24:30.107 : en:01:24:30.107
Свернуть

Скриншоты
Изображение
Изображение
Изображение
Свернуть
Изображение


Изображение Изображение
_________________
Не ищите меня в "ВКонтакте", в "Одноклассниках" меня нет - я на трекерах сижу!
Не в сети
Профиль  
 Добавлено: 2015-10-12 20:44 (спустя 4 дня)
Аватара пользователя
Стаж: 6 лет 8 месяцев
Возраст: 30
Сообщений: 88
Лайков: 6
Полная фигня,как ужас - ну только если детей пугать .смотрел с дочкой 4,5 года она очень напугалась .В остальном очень низко бюджетный фильм,черного юмора практически нет,юмор плоский. Я бы не рекомендовал смотреть этот низко бюджетный фильм .
Не в сети
Профиль  
Начать новую темуОтветить на тему  [ Сообщений: 2 ] 
Вы не можете начинать темы
Вы не можете отвечать на сообщения
Вы не можете редактировать свои сообщения
Вы не можете удалять свои сообщения