Правила форума

  • В этом разделе создание новых тем Запрещено.
  • Для создания новых тем пользуйтесь Корневым разделом DVD и HD фильмы.
Начать новую темуОтветить на тему  [ Сообщений: 5 ] 
Торрент файл
Размер: 5.67 GB • Зарегистрирован: 3 года 10 месяцев • Статус: T Временный релиз
Скачан: 46 раз • Желающих скачать: 0 • Поблагодарили: 14 раз
 Раздают: 0  |  0 KB/s  ]   Качают: 0  |  0 KB/s  ] 
 Полного источника не было 1 год 3 месяца 
Сообщения
 Добавлено: 2013-02-05 16:30
Аватара пользователя
Стаж: 8 лет 1 месяц
Возраст: 21
Сообщений: 42
Спасибок: 30
Квартира 143 / Emergo

Изображение


Год выпуска: 2011
Страна: Испания
Жанр: ужасы
Продолжительность: 01:20:02
Перевод: Любительский (двухголосый закадровый)(den904 и DeadSno)
Субтитры: английские, испанские
Оригинальная аудиодорожка: английский
Режиссёр: Карлес Торренс / Carles Torrens
В ролях: Франческ Гарридо, Фиона Глэскотт, Рик Гонсалес, Кай Леннокс, Джина Мантенья, Майкл О’Киф, Дамиан Роман, Лаура Мартусцелли, Ферми Рейксач, Марсель Баррена
Описание:Команда парапсихологов намеревается исследовать серию аномальных явлений, возникших в недавно заселенной квартире. Телефонные звонки в отсутствии звонящего, таинственные тени, необычные световые аномалии, парящие в воздухе объекты, взрывы лампочек лишь некоторые события, с которыми им предстоит столкнуться, попутно снимая все на камеру. Используя инфракрасную съемку, датчики движения, цифровые фотоаппараты, их попытки связаться с потусторонним миром становятся все более и более опасными, пока они не дойдут до точки невозврата.

Подогнананная без перекодировки DVO взята из:
http://rutracker.org/forum/viewtopic.php?t=4180900

Качество: BDRip 720p (TayTO)
Формат: MKV
Видео кодек: H.264
Аудио кодек: AC3, DTS
Видео: 1280 x 690; 23,976 fps; 7 979 Kbps
Аудио1: Русский, AC3 5.1 448 Kbps 48,0 КГц(DVO)
Аудио2: English, DTS 5.1 1536 Kbps 48,0 КГц(Оригинал)
Субтитры: softsub (SRT)
MediaInfo
D:\HDFILMS\Emergo.2011.720p.BDRip.Rus.Eng.mkv
General
Unique ID : 230003194028335816169931538882636526752 (0xAD0900FD84C7B286AC5D779E5007B4A0)
Complete name : D:\HDFILMS\Emergo.2011.720p.BDRip.Rus.Eng.mkv
Format : Matroska
Format version : Version 2
File size : 5.67 GiB
Duration : 1h 20mn
Overall bit rate : 10.1 Mbps
Encoded date : UTC 2012-09-22 07:47:22
Writing application : mkvmerge v5.3.0 ('I could have danced') built on Feb 9 2012 10:38:07
Writing library : libebml v1.2.3 + libmatroska v1.3.0
Video #1
ID : 1
Format : AVC
Format/Info : Advanced Video Codec
Format profile : High@L4.1
Format settings, CABAC : Yes
Format settings, ReFrames : 9 frames
Codec ID : V_MPEG4/ISO/AVC
Duration : 1h 20mn
Bit rate : 7 979 Kbps
Width : 1 280 pixels
Height : 690 pixels
Display aspect ratio : 1.855
Frame rate : 23.976 fps
Color space : YUV
Chroma subsampling : 4:2:0
Bit depth : 8 bits
Scan type : Progressive
Bits/(Pixel*Frame) : 0.377
Stream size : 4.46 GiB (79%)
Title : Emergo.2011.720p.BluRay.DTS.x264-TayTO
Writing library : x264 core 125 r2208 d9d2288
Encoding settings : cabac=1 / ref=9 / deblock=1:-3:-3 / analyse=0x3:0x113 / me=tesa / subme=11 / psy=1 / psy_rd=1.15:0.00 / mixed_ref=1 /
me_range=16 / chroma_me=1 / trellis=2 / 8x8dct=1 / cqm=0 / deadzone=21,11 / fast_pskip=0 / chroma_qp_offset=-2 / threads=12 / lookahead_threads=2 /
sliced_threads=0 / nr=0 / decimate=0 / interlaced=0 / bluray_compat=0 / constrained_intra=0 / bframes=11 / b_pyramid=2 / b_adapt=2 / b_bias=0 /
direct=3 / weightb=1 / open_gop=0 / weightp=2 / keyint=250 / keyint_min=23 / scenecut=40 / intra_refresh=0 / rc=crf / mbtree=0 / crf=16.8 / qcomp=0.55
/ qpmin=0 / qpmax=69 / qpstep=4 / ip_ratio=1.40 / pb_ratio=1.30 / aq=1:0.60
Default : No
Forced : No
Matrix coefficients : BT.709-5, BT.1361, IEC 61966-2-4 709, SMPTE RP177
Audio #2
ID : 2
Format : AC-3
Format/Info : Audio Coding 3
Mode extension : CM (complete main)
Codec ID : A_AC3
Duration : 1h 20mn
Bit rate mode : Constant
Bit rate : 448 Kbps
Channel(s) : 6 channels
Channel positions : Front: L C R, Side: L R, LFE
Sampling rate : 48.0 KHz
Bit depth : 16 bits
Compression mode : Lossy
Stream size : 256 MiB (4%)
Title : DVO AC3 5.1 448 kbps
Language : Russian
Default : No
Forced : No
Audio #3
ID : 3
Format : DTS
Format/Info : Digital Theater Systems
Codec ID : A_DTS
Duration : 1h 20mn
Bit rate mode : Constant
Bit rate : 1 510 Kbps
Channel(s) : 6 channels
Channel positions : Front: L C R, Side: L R, LFE
Sampling rate : 48.0 KHz
Bit depth : 24 bits
Compression mode : Lossy
Stream size : 864 MiB (15%)
Title : Original DTS 5.1 1536 kbps
Language : English
Default : No
Forced : No
Text #4
ID : 4
Format : UTF-8
Codec ID : S_TEXT/UTF8
Codec ID/Info : UTF-8 Plain Text
Language : English
Default : No
Forced : No
Text #5
ID : 5
Format : UTF-8
Codec ID : S_TEXT/UTF8
Codec ID/Info : UTF-8 Plain Text
Language : Spanish
Default : No
Forced : No
Свернуть
Скриншоты
Изображение
Изображение
Изображение
Изображение
Изображение
Изображение
Свернуть


Последний раз редактировалось forse 2013-02-06 16:55, всего редактировалось 4 раз(а).
Не в сети
Профиль  
 Добавлено: 2013-02-05 20:13 (спустя 3 часа)
Модератор релиз-группы
Аватара пользователя
Стаж: 6 лет 5 месяцев
Возраст: 25
Сообщений: 622
Спасибок: 10258
Лайков: 7
forse
Cкрытый текст
Изображение
Свернуть

скриншоты
[img]http://i25.fastpic.ru/big/2012/1010/ce/0f997f23e632ea5c03fd532f028e1dce.png[/img]
[img]http://i25.fastpic.ru/big/2012/1010/d6/845d1e9538df88a418064e482c8319d6.png[/img]
[img]http://i25.fastpic.ru/big/2012/1010/29/612aac8c7f3661860ba4505276f91b29.png[/img]
[img]http://i25.fastpic.ru/big/2012/1010/42/ccc8491a11f0c2b96addfa8a09b67e42.png[/img]
Свернуть
В шапке вместо ДВД5 наиши БДРип :)
_________________
Изображение
Не в сети
Профиль  
 Добавлено: 2013-02-06 05:41 (спустя 9 часов)
Руководитель релиз-группы
Аватара пользователя
Стаж: 7 лет 5 месяцев
Возраст: 31
Сообщений: 3406
Спасибок: 46729
Лайков: 5
forse
сделайте полноразмерные скриншоты в формате .png
Не в сети
Профиль  
 Добавлено: 2013-02-06 16:55 (спустя 11 часов)
Аватара пользователя
Стаж: 8 лет 1 месяц
Возраст: 21
Сообщений: 42
Спасибок: 30
Переделал)
_________________
Изображение
Не в сети
Профиль  
 Добавлено: 2013-07-25 23:02 (спустя 5 месяцев 19 дней)
Аватара пользователя
Стаж: 8 лет 11 месяцев
Сообщений: 118
Спасибок: 550
:ya_hoo_oo:
Не в сети
Профиль  
Начать новую темуОтветить на тему  [ Сообщений: 5 ] 
Вы не можете начинать темы
Вы не можете отвечать на сообщения
Вы не можете редактировать свои сообщения
Вы не можете удалять свои сообщения