Правила форума

  • В этом разделе создание новых тем Запрещено.
  • Для создания новых тем пользуйтесь Корневым разделом DVD и HD фильмы.
Начать новую темуОтветить на тему  [ Сообщений: 2 ] 
Торрент файл
Размер: 11.58 GB • Зарегистрирован: 5 лет 8 месяцев • Статус: Проверено
Скачан: 218 раз • Желающих скачать: 0 • Поблагодарили: 31 раз
 Раздают: 0  |  0 KB/s  ]   Качают: 0  |  0 KB/s  ] 
 Полного источника не было 3 года 2 месяца 
Сообщения
 Добавлено: 2011-04-04 15:48
Модератор
Аватара пользователя
Стаж: 8 лет 1 месяц
Возраст: 20
Сообщений: 32130
Спасибок: 98576
Лайков: 80
Ларго Винч 2: Заговор в Бирме
Largo Winch (Tome 2)




Изображение

Год выпуска: 2011
Страна: Германия, Франция, Бельгия
Жанр: триллер, приключения
Продолжительность: 01:58:17
Перевод: Профессиональный (полное дублирование)

Режиссер: Жером Салль
Сценарий: Жюльен Рапно, Жером Салль, Жан Ван Хамме, Филипп Франк
Продюсер: Натали Гастальдо, Чу Чен Оун, Эрик Зауали
Оператор: Дени Руден
Композитор: Александр Деспла

В ролях: Томер Сислей (Largo Winch), Шэрон Стоун (Diane Francken), Ульрих Тукур (Dwight Cochrane), Напакпапха Накпраситте (Malunaï), Оливье Бартелеми (Simon Ovronnaz), Николас Воде (Gauthier), Клеменс Шик (Dragan Lazarevic), Дмитрий Назаров (Virgil Nazatchov), Лоран Терзиефф (Alexandre Jung), Франсуа Монтагю (Clive Hanson), Нирут Сиричанья (General Kyaw Min), Анатоль Таубман (Beaumont)
Дублёры: Виктор Раков (Largo Winch), Любовь Германова (Diane Francken), Константин Карасик (Dwight Cochrane), Вероника Саркисова(Malunaï ), Денис Беспалый (Simon Ovronnaz) , Диомид Виноградов (Gauthier), Александр Носков (Dragan Lazarevic), Дмитрий Назаров (Virgil Nazatchov), Валерий Сторожик (Alexandre Jung), Андрей Градов (Clive Hanson), Михаил Георгиу (General Kyaw Min), Василий Дахненко (Beaumont)

Описание: После убийства приёмного отца Ларго Винч становится президентом группы компаний «W Group». Но роль управленца огромной корпорации не подходит Ларго. Он объявляет о продаже «W Group» и создании гуманитарного фонда, который возглавит старый друг его отца. В день, когда договор подписан, Ларго обвиняют в преступлениях против человечества и финансировании режима бирманского генерала Мина.
Чтобы узнать, кто стоит за ложными обвинениями, Ларго Винч отправляется в Бирму и встречает там свою бывшую возлюбленную Малунай, которая поможет раскрыть заговор.

Раздача: Изображение

Изображение

Качество: BDRip 1080p [Рип с Bluray 1080p]
Формат: MKV
Видео: 1920 x 800 (2.400) at 24.000 fps : 0.333 Bits/Pixel, ~12,3 Mb/s
Аудио: DTS, 1510 kb/s (6ch), 48 kHz (Русский дубляж)
Скачать: сэмпл

Доп. информация
Бюджет: $41 000 000
Сборы в России: $1 564 938
Мировая премьера: 16 февраля 2011
Изображение Релиз на DVD: 31 марта 2011, «Мистерия Звука»
Изображение Релиз на Blu-ray: 31 марта 2011, «Мистерия Звука»
MediaInfo
D:\Largo Winch (Tome 2) (2011) BDRip 1080p\Largo.Winch.II.2011.BDRip.1080p.mkv
General
Complete name : D:\Largo Winch (Tome 2) (2011) BDRip 1080p\Largo.Winch.II.2011.BDRip.1080p.mkv
Format : Matroska
File size : 11.6 GiB
Duration : 1h 58mn
Overall bit rate : 14.0 Mbps
Encoded date : UTC 2011-04-02 17:09:21
Writing application : mkvmerge v4.0.0 ('The Stars were mine') ñáîðêà îò Jun 6 2010 16:18:42
Writing library : libebml v1.0.0 + libmatroska v1.0.0
Video #1
ID : 1
Format : AVC
Format/Info : Advanced Video Codec
Format profile : High@L4.1
Format settings, CABAC : Yes
Format settings, ReFrames : 2 frames
Muxing mode : Container profile=Unknown@4.1
Codec ID : V_MPEG4/ISO/AVC
Duration : 1h 58mn
Bit rate : 12.2 Mbps
Nominal bit rate : 12.5 Mbps
Width : 1 920 pixels
Height : 800 pixels
Display aspect ratio : 2.40:1
Frame rate : 24.000 fps
Resolution : 24 bits
Colorimetry : 4:2:0
Scan type : Progressive
Bits/(Pixel*Frame) : 0.332
Stream size : 10.1 GiB (87%)
Writing library : x264 core 68 r1183M f21daff
Encoding settings : cabac=1 / ref=2 / deblock=1:0:0 / analyse=0x3:0x113 / me=hex / subme=4 / psy_rd=0.0:0.0 / mixed_ref=0 / me_range=16 / chroma_me=1 / trellis=1 / 8x8dct=1 / cqm=0 / deadzone=21,11 / chroma_qp_offset=0 / threads=6 / nr=0 / decimate=1 / mbaff=0 / bframes=3 / b_pyramid=0 / b_adapt=1 / b_bias=0 / direct=1 / wpredb=1 / keyint=250 / keyint_min=25 / scenecut=40 / rc=2pass / bitrate=12510 / ratetol=1.0 / qcomp=0.60 / qpmin=10 / qpmax=51 / qpstep=4 / cplxblur=20.0 / qblur=0.5 / ip_ratio=1.40 / pb_ratio=1.30 / aq=1:1.00
Audio #2
ID : 2
Format : DTS
Format/Info : Digital Theater Systems
Codec ID : A_DTS
Duration : 1h 58mn
Bit rate mode : Constant
Bit rate : 1 510 Kbps
Channel(s) : 6 channels
Channel positions : Front: L C R, Surround: L R, LFE
Sampling rate : 48.0 KHz
Resolution : 16 bits
Stream size : 1.25 GiB (11%)
Title : DTS.1510.Kbs.RUS
Language : Russian
Свернуть
Свернуть
Скриншоты
Изображение
Изображение
Изображение
Изображение
Свернуть
Не в сети
Профиль  
 Добавлено: 2011-04-04 16:34 (спустя 46 минут)
Стаж: 7 лет 4 месяца
Сообщений: 15
Большое спасибо за Rip
Не в сети
Профиль  
Начать новую темуОтветить на тему  [ Сообщений: 2 ] 
Вы не можете начинать темы
Вы не можете отвечать на сообщения
Вы не можете редактировать свои сообщения
Вы не можете удалять свои сообщения