Правила форума

  • В этом разделе создание новых тем Запрещено.
  • Для создания новых тем пользуйтесь Корневым разделом DVD и HD фильмы.
Начать новую темуОтветить на тему  [ Сообщений: 2 ] 
Торрент файл
Размер: 12.98 GB • Зарегистрирован: 5 лет 8 месяцев • Статус: Проверено
Скачан: 173 раза • Желающих скачать: 0 • Поблагодарили: 24 раза
 Раздают: 0  |  0 KB/s  ]   Качают: 0  |  0 KB/s  ] 
 Полного источника не было 10 месяцев 
Сообщения
 Добавлено: 2011-03-10 17:55
Модератор релиз-группы
Аватара пользователя
Стаж: 9 лет 1 месяц
Возраст: 97
Сообщений: 11659
Спасибок: 6532
Лайков: 269
Ларго Винч: Начало / Largo Winch

Изображение


Год выпуска: 2008
Страна: Франция, Бельгия
Жанр: Триллер, Боевик, Приключения
Продолжительность: 01:48:50
Перевод: Профессиональный (дубляж)
Дублеры: Виктор Раков,Ольга Зубкова,Вадим Андреев,Любовь Германова,Александр Груздев
Французская звуковая дорожка
Английская звуковая дорожка
Субтитры:Русские

Режиссёр: Жером Салль / Jérôme Salle
В ролях: Томер Сислей, Кристин Скотт Томас, Мики Манойлович, Мелани Тьерри, Гилберт Мелки, Карел Роден, Стивен Вэддингтон, Анн Консиньи, Радивойе Буквич, Николас Воде
Описание: Ларго Винч — сирота, усыновленный миллиардером, его приемный отец погибает при загадочных обстоятельствах. В 26 лет Ларго наследует огромную корпорацию и миллиардное состояние. Теперь он — владелец заводов, газет, пароходов. Но, большие деньги — большие проблемы. Ларго Винч попадает в первые списки Форбс, и в черные списки конкурентов, на него точат зуб компаньоны и даже самые верные друзья готовы предать. Ларго Винч — принимает бой. Красавец, бунтарь, воин-одиночка — готов пройти огонь, воду и медные трубы, чтобы противостоять заговору и восстановить справедливость.
Изображение 7.193 голосов: 9 418

Изображение

Качество: BDRip, 1080p
Формат: MKV
Видео кодек: H264 (AVC)
Аудио кодек: AC3 (Dolby Digital)
Видео: 14.7 Mbps, 1920x820, 23.976 fps
Аудио #1: Русский (AC3, 6 ch; 448.00 kbps, 48 kHz) [Профессиональный (дубляж)]
Аудио #2: Французский (DTS 5.1 1536 Kbps, 48 kHz)
Аудио #3: Английский (AC3, 6 ch; 448.00 kbps, 48 kHz)
Субтитры: Русские
Скриншоты
Изображение

Изображение

Изображение

Изображение

Изображение
Свернуть

Mi
Format : Matroska
File size : 13.0 GiB
Duration : 1h 48mn
Overall bit rate : 17.1 Mbps
Encoded date : UTC 2009-09-23 12:45:55
Writing application : mkvmerge v2.9.8 ('C'est le bon') built on Aug 13 2009 12:49:06
Writing library : libebml v0.7.7 + libmatroska v0.8.1

Video
ID : 1
Format : AVC
Format/Info : Advanced Video Codec
Format profile : High@L4.1
Format settings, CABAC : Yes
Format settings, ReFrames : 4 frames
Codec ID : V_MPEG4/ISO/AVC
Duration : 1h 48mn
Bit rate : 14.7 Mbps
Width : 1 920 pixels
Height : 820 pixels
Display aspect ratio : 2.35:1
Frame rate : 23.976 fps
Color space : YUV
Chroma subsampling : 4:2:0
Bit depth : 8 bits
Scan type : Progressive
Bits/(Pixel*Frame) : 0.388
Stream size : 10.9 GiB (84%)
Writing library : x264 core 68 r1183M f21daff
Encoding settings : cabac=1 / ref=4 / deblock=1:-3:-3 / analyse=0x3:0x113 / me=umh / subme=9 / psy_rd=1.0:0.0 / mixed_ref=1 / me_range=32 / chroma_me=1 / trellis=2 / 8x8dct=1 / cqm=0 / deadzone=21,11 / chroma_qp_offset=-2 / threads=6 / nr=0 / decimate=1 / mbaff=0 / bframes=3 / b_pyramid=1 / b_adapt=2 / b_bias=0 / direct=3 / wpredb=1 / keyint=250 / keyint_min=25 / scenecut=40 / rc=2pass / bitrate=14665 / ratetol=1.0 / qcomp=0.60 / qpmin=10 / qpmax=51 / qpstep=4 / cplxblur=20.0 / qblur=0.5 / ip_ratio=1.40 / pb_ratio=1.30 / aq=1:0.80
Language : English

Audio #1
ID : 2
Format : AC-3
Format/Info : Audio Coding 3
Mode extension : CM (complete main)
Codec ID : A_AC3
Duration : 1h 48mn
Bit rate mode : Constant
Bit rate : 448 Kbps
Channel(s) : 6 channels
Channel positions : Front: L C R, Side: L R, LFE
Sampling rate : 48.0 KHz
Bit depth : 16 bits
Compression mode : Lossy
Stream size : 349 MiB (3%)
Title : Русский, Дубляж
Language : Russian

Audio #2
ID : 3
Format : DTS
Format/Info : Digital Theater Systems
Codec ID : A_DTS
Duration : 1h 48mn
Bit rate mode : Constant
Bit rate : 1 510 Kbps
Channel(s) : 6 channels
Channel positions : Front: L C R, Side: L R, LFE
Sampling rate : 48.0 KHz
Bit depth : 16 bits
Compression mode : Lossy
Stream size : 1.15 GiB (9%)
Title : Французский
Language : French

Audio #3
ID : 4
Format : AC-3
Format/Info : Audio Coding 3
Mode extension : CM (complete main)
Codec ID : A_AC3
Duration : 1h 48mn
Bit rate mode : Constant
Bit rate : 448 Kbps
Channel(s) : 6 channels
Channel positions : Front: L C R, Side: L R, LFE
Sampling rate : 48.0 KHz
Bit depth : 16 bits
Compression mode : Lossy
Stream size : 349 MiB (3%)
Title : Английский
Language : English

Text
ID : 5
Format : UTF-8
Codec ID : S_TEXT/UTF8
Codec ID/Info : UTF-8 Plain Text
Title : Русские
Language : Russian
Свернуть
Не в сети
Профиль  
 Добавлено: 2011-03-10 20:15 (спустя 2 часа 19 минут)
Аватара пользователя
Стаж: 7 лет
Сообщений: 183
Хотел выложить))
_________________
Юзербары
Изображение
Изображение
Изображение
Изображение
Свернуть
Не в сети
Профиль  
Начать новую темуОтветить на тему  [ Сообщений: 2 ] 
Вы не можете начинать темы
Вы не можете отвечать на сообщения
Вы не можете редактировать свои сообщения
Вы не можете удалять свои сообщения