Правила форума

  • В этом разделе создание новых тем Запрещено.
  • Для создания новых тем пользуйтесь Корневым разделом DVD и HD фильмы.
Начать новую темуОтветить на тему  [ Сообщений: 2 ] 
Торрент файл
Размер: 8.22 GB • Зарегистрирован: 5 лет 1 месяц • Статус: Проверено
Скачан: 144 раза • Желающих скачать: 0 • Поблагодарили: 29 раз
 Раздают: 0  |  0 KB/s  ]   Качают: 0  |  0 KB/s  ] 
 Полного источника не было 5 месяцев 
Сообщения
 Добавлено: 2011-11-02 06:53
Top-releaser
Аватара пользователя
Стаж: 8 лет 7 месяцев
Сообщений: 1286
Спасибок: 3420
Лайков: 7
Ларри Краун / Larry Crowne

Изображение
Год выпуска: 2011
Страна: США
Жанр: драма, мелодрама, комедия
Продолжительность: 01:38:36
Перевод: Субтитры, Профессиональный (полное дублирование)

Режиссер: Том Хэнкс
Сценарий: Том Хэнкс, Ниа Вардалос
Продюсер: Гари Гоэцман, Том Хэнкс, Джеб Броди, Дэвид Коутсворт, Каттерли Фроуенфельдер
Оператор: Филипп Русло
Композитор: Джеймс Ньютон Ховард

В ролях: Том Хэнкс (Larry Crowne), Джулия Робертс (Mercedes Tainot), Сара Махони (Samantha), Роксана Ортега (Alvarez), Рэндолл Парк (Trainee Wong), Брэйди Рубин (Dorothy Genkos), Алекс Кихано (Team Leader #1), Тина Хуанг (Team Leader #2), Е-Кан Сунг (Team Leader #3), Тарина Паунси (Team Leader #4), Сай Ричардсон (Avery), Джули Вагнер (Vacuum Shopper)
Дублёры: Александр Груздев (Larry Crowne), Марина Бакина (Mercedes Tainot), Дмитрий Курта (Trainee Wong), Петр Тобилевич (Cox), Любовь Германова (Wilma Q. Gammelgaard), Ольга Голованова (B'Ella), Вячеслав Баранов (Dave Busik), Даниил Эльдаров (Dell Gordo), Инна Королёва (Frances), Лина Иванова (Talia), Андрей Градов (Dr. Matsutani), Валерий Сторожик (Dean Tainot)

Описание: До своего увольнения приветливый и любезный Ларри Краун был преуспевающим командным руководителем крупной компании, в которой он работал после службы на флоте. Под тяжестью ипотеки и будучи в неясности от того, что делать с внезапно появившимися свободными днями, Ларри направляется в местный колледж, чтобы начать все сначала.
Там он становится частью разношерстного сообщества изгоев и вечных неудачников, находящихся в постоянном поиске лучшего будущего для себя… и часто рассекающих по городским окрестностям на самокатах. На занятиях по технике публичных выступлений Ларри порождает неожиданную давку на своего учителя Мерседес Тэйнот, потерявшую столько же страсти к обучению, сколько у нее было ее для собственного мужа. Простой парень, у которого есть все основания думать, что его жизнь остановилась, усвоит неожиданный урок: когда Вы считаете, что все возможные ценности уже прошли мимо Вас, Вы можете обнаружить повод, чтобы жить.


Релиз: Изображение Раздача: Изображение

Изображение
Изображение

Бюджет, Сборы, Премьеры, Релизы
    Бюджет: $30 000 000
    Сборы в США: $35 608 245
    Сборы в России: $1 862 523
    Сборы в мире: $52 408 245
    Мировая премьера: 27 июня 2011
    Релиз на DVD: 3 ноября 2011, «Новый Диск»
Свернуть

Качество: BDRip
Формат: Matroska
Видео: AVC; 1920x800 (2.40:1); 10738 kbps; 23,976 fps; 0,292 bit/pixel
Аудио №1: Russian; AC3; 448 kbps; CBR; 6 channels; 16 bit
Аудио №2: English; DTS; 754 kbps; CBR; 6 channels; 24 bit

Субтитры №1: Russian
Субтитры №2: English

MediaInfo
Общее
Уникальный идентификатор : 194056218905737035072561816505283272602 (0x91FDDE4827EBFD9299307AEE375C5F9A)
Полное имя : C:\Видео\Larry.Crowne.2011.D.BDRip.1080p.[R.G.KINOvNINO].mkv
Формат : Matroska
Версия формата : Version 2
Размер файла : 8,22 Гбайт
Продолжительность : 1 ч. 38 м.
Общий поток : 11,9 Мбит/сек
Название фильма : Larry Crowne (2011) Release for Uniongang.tv
Дата кодирования : UTC 2011-11-01 18:53:31
Программа кодирования : mkvmerge v5.0.1 ('Es ist Sommer') built on Oct 9 2011 11:55:43
Библиотека кодирования : libebml v1.2.2 + libmatroska v1.3.0

Видео
Идентификатор : 1
Формат : AVC
Формат/Информация : Advanced Video Codec
Профиль формата : High@L4.1
Параметр CABAC формата : Да
Параметр ReFrames формата : 5 кадров
Идентификатор кодека : V_MPEG4/ISO/AVC
Продолжительность : 1 ч. 38 м.
Битрейт : 10,7 Мбит/сек
Ширина : 1920 пикс.
Высота : 800 пикс.
Соотношение сторон : 2,40:1
Частота кадров : 23,976 кадр/сек
Цветовое пространство : YUV
Подвыборка цветности : 4:2:0
Битовая глубина : 8 бит
Тип развёртки : Прогрессивная
Бит/(Пиксели*Кадры) : 0.292
Размер потока : 7,23 Гбайт (88%)
Заголовок : Larry Crowne (2011) Release for Uniongang.tv
Библиотека кодирования : x264 core 116 r2057 0ba8a9c
Настройки программы : cabac=1 / ref=5 / deblock=1:-3:-3 / analyse=0x3:0x113 / me=umh / subme=10 / psy=1 / psy_rd=1.05:0.10 / mixed_ref=1 / me_range=48 / chroma_me=1 / trellis=2 / 8x8dct=1 / cqm=1 / deadzone=21,11 / fast_pskip=0 / chroma_qp_offset=-2 / threads=12 / sliced_threads=0 / nr=0 / decimate=1 / interlaced=0 / bluray_compat=0 / constrained_intra=0 / bframes=6 / b_pyramid=2 / b_adapt=2 / b_bias=0 / direct=3 / weightb=1 / open_gop=0 / weightp=2 / keyint=250 / keyint_min=23 / scenecut=40 / intra_refresh=0 / rc_lookahead=60 / rc=2pass / mbtree=1 / bitrate=10738 / ratetol=2.0 / qcomp=0.70 / qpmin=3 / qpmax=69 / qpstep=4 / cplxblur=20.0 / qblur=0.5 / vbv_maxrate=40000 / vbv_bufsize=30000 / nal_hrd=none / ip_ratio=1.40 / aq=2:1.00
Язык : English

Аудио #1
Идентификатор : 2
Формат : AC-3
Формат/Информация : Audio Coding 3
Расширение режима : CM (complete main)
Идентификатор кодека : A_AC3
Продолжительность : 1 ч. 38 м.
Вид битрейта : Постоянный
Битрейт : 448 Кбит/сек
Каналы : 6 каналов
Расположение каналов : Front: L C R, Side: L R, LFE
Частота : 48,0 КГц
Битовая глубина : 16 бит
Метод сжатия : С потерями
Задержка видео : 19 с.
Размер потока : 316 Мбайт (4%)
Заголовок : Russian: AC3, 448 kb/s (6 ch)
Язык : Russian

Аудио #2
Идентификатор : 3
Формат : DTS
Формат/Информация : Digital Theater Systems
Идентификатор кодека : A_DTS
Продолжительность : 1 ч. 38 м.
Вид битрейта : Постоянный
Битрейт : 755 Кбит/сек
Каналы : 6 каналов
Расположение каналов : Front: L C R, Side: L R, LFE
Частота : 48,0 КГц
Битовая глубина : 24 бит
Метод сжатия : С потерями
Размер потока : 532 Мбайт (6%)
Заголовок : English: DTS, 755 kb/s (6 ch)
Язык : English

Текст #1
Идентификатор : 4
Формат : UTF-8
Идентификатор кодека : S_TEXT/UTF8
Идентификатор кодека/Информация : UTF-8 Plain Text
Заголовок : Russian
Язык : Russian

Текст #2
Идентификатор : 5
Формат : UTF-8
Идентификатор кодека : S_TEXT/UTF8
Идентификатор кодека/Информация : UTF-8 Plain Text
Заголовок : English
Язык : English

Меню
00:00:00.000 : en:00:00:00.000
00:07:17.020 : en:00:07:17.020
00:15:29.262 : en:00:15:29.262
00:24:31.178 : en:00:24:31.178
00:33:43.188 : en:00:33:43.188
00:42:30.423 : en:00:42:30.423
00:50:33.405 : en:00:50:33.405
00:58:35.846 : en:00:58:35.846
01:05:12.992 : en:01:05:12.992
01:14:06.442 : en:01:14:06.442
01:25:03.724 : en:01:25:03.724
01:30:54.324 : en:01:30:54.324

Свернуть

Скриншоты

Изображение

Изображение

Изображение

Изображение

Свернуть
Не в сети
Профиль  
 Добавлено: 2013-07-11 17:54 (спустя 1 год 8 месяцев)
Кинокомментатор
Аватара пользователя
Стаж: 9 лет
Сообщений: 1331
Лайков: 52
кино хорошее! качественное!) но не много попсово-наигранное;) что его не особо портит:) но и с реальной жизнью общего не так уж много;) главное смысл! а смысл у фильма очень правильный;)

"Мозг глупца переваривает философию в глупость, науку в суеверие, а искусство - в педантство. Отсюда университетское образование"
Джордж Бернард Шоу

хорошие слова:)

смотреть конечно стоит! ну 7/10 где то)
_________________
Я ВКонтакте


Тема поднималась пользователем Shamman 2013-07-11 17:54.
Не в сети
Профиль  
Начать новую темуОтветить на тему  [ Сообщений: 2 ] 
Вы не можете начинать темы
Вы не можете отвечать на сообщения
Вы не можете редактировать свои сообщения
Вы не можете удалять свои сообщения