Правила форума

  • В этом разделе создание новых тем Запрещено.
  • Для создания новых тем пользуйтесь Корневым разделом DVD и HD фильмы.
Начать новую темуОтветить на тему  [ 1 сообщение ] 
Торрент файл
Размер: 7.72 GB • Зарегистрирован: 5 лет 10 месяцев • Статус: Проверено
Скачан: 33 раза • Желающих скачать: 0 • Поблагодарили: 14 раз
 Раздают: 0  |  0 KB/s  ]   Качают: 0  |  0 KB/s  ] 
 Полного источника не было 2 года 8 месяцев 
Сообщения
 Добавлено: 2011-01-13 02:45
Top-releaser
Аватара пользователя
Стаж: 6 лет 11 месяцев
Возраст: 45
Сообщений: 299
Спасибок: 4106
Лайков: 3
Легенды осени / Legends of the Fall
«The men of the Ludlow family. A woman's grace brought them together. Then her passion tore them apart.»

Изображение
Изображение

Год выпуска: 1994
Страна: США
Жанр: драма, мелодрама, вестерн, военный
Продолжительность: 02:07:21
Перевод: Профессиональный (многоголосый, закадровый), Профессиональный (полное дублирование)

Режиссер: Эдвард Цвик / Edward Zwick
Сценарий: Джим Харрисон / Jim Harrison, Сьюзен Шиллидей / Susan Shilliday, Уильям Д. Уиттлиф / William D. Wittliff
Продюсер: Джейн Бартелм / Jane Bartelme, Сара Каплан / Sarah Caplan, Патрик Краули / Patrick Crowley, Маршалл Херсковиц / Marshall Herskovitz, Уильям Д. Уиттлиф / William D. Wittliff
Оператор: Джон Толл / John Toll
Композитор: Джеймс Хорнер / James Horner

В ролях: Брэд Питт (Tristan Ludlow), Энтони Хопкинс (Col. William Ludlow), Эйдан Куинн (Alfred Ludlow), Джулия Ормонд (Susannah Fincannon Ludlow), Генри Томас (Samuel Ludlow), Карина Ломбард (Isabel Two Decker Ludlow), Гордон Тутусис (One Stab), Кристина Пиклз (Isabel Ludlow), Пол Десмонд (Decker), Танту Кардинал (Pet), Роберт Уизден (John T. O'Banion), Джон Новак (James O'Banion)
Описание: «Некоторые люди очень ясно слышат свой внутренний голос, и живут так, как он им подсказывает. Такие люди сходят с ума. Или становятся легендами». Так начинается история семьи Ладлоу - стремительный и романтический рассказ о трех братьях, их отце и молодой и неотразимой женщине, которая роковым образом изменяет жизнь каждого из них.
С детства трое братьев неразлучны, однако они еще не подозревают, по какой тропе страстей и насилия поведет жизнь каждого из них.
Сквозь ужасы Первой Мировой, сквозь потерянные годы, последовавшие за войной, через любовь и потери, предательство и надежду. И в центре всегда оказывался недосягаемый, непредсказуемый Тристан.

Изображение
Бюджет: $30 000 000
Сборы в США: $66 638 883
Сборы в мире: $160 638 883
Мировая премьера: 16 декабря 1994
Релиз на DVD: 5 августа 2010, «Columbia\Sony»
Изображение

Рецензия Delicate

Один из моих любимых кинофильмов! Невероятно глубокая, мудрая и необузданная картина о любви и ненависти, страсти и нежности, отваге и свободе. На мой взгляд, подобных кинофильмов катастрофически не хватает современному кинематографу.
Свернуть
Рецензия Gerda Rome

Фильм просто потрясающий. Несмотря на то, что снят он достаточно давно, он совсем не теряет актуальности. Более того, настоятельно рекомендую смотреть его не один раз, а несколько, причем на разных жизненных этапах, потому что со временем восприятие очень сильно меняется. Каждый раз находишь что-то новое для себя.
Сюжет фильма далеко не банальный: перед зрителем целая жизнь, судьба, история американской семьи. Какая это жизнь? Счастливая или трагическая? Настоящая.
Игра актеров бесподобна. Больше всего, конечно же, радуют Бред Питт, Энтони Хопкинс и Джулия Ормонд. Потрясающие персонажи. Потрясающие судьбы.
Легенда — это не сказка и не миф. Легенда — это рассказ о том, что возможно, когда-то было, а. возможно, и нет. Но легенда живет до тех пор, пока может что-то дать людям: ответы на вопросы, повод задуматься или пример для подражания.
Для меня фильм «Легенды Осени» о том, что пройдя сто путей, повидав сто миров, оглянувшись назад, ты должен задать себе только один вопрос: «А кого я сделал счастливым?»
10 из 10
Свернуть
Рецензия vieri26

Обо всем и про каждого!
Тяжело передать словами сюжет этой, без сомнения, великой картины. Это фильм с большой буквы А. Именно такой категории эта картина. Игра актеров, сюжет и т. д. и т. п. Каждый найдет частичку себя в этом фильме. Считаю эту картину вершиной творения кинематографа.
П. С. Посмотрите этот фильм обязательно. А если он вам понравился, то посмотрите еще «Там, где течет река»
10 из 10
Свернуть
Изображение

Оскар, 1995 год
Победитель - Лучшая работа оператора
Номинация 1 - Лучшие декорации
Номинация 2 - Лучший звук

MPAA: Изображение - Лицам до 17 лет обязательно присутствие взрослого
Качество: HDTV, 720p
Формат: Matroska
Видео: AVC; 1280x688 (1.860); 7169 Kbps; 25 fps; 0,326 bpp
Аудио №1: Russian; DTS; 48 KHz; 754 Kbps; CBR; 6 ch; 24 bit; [Профессиональный (полное дублирование)]
Аудио №2: Russian; AC3; 48 KHz; 192 Kbps; CBR; 2 ch; [Профессиональный (многоголосый, закадровый)]
Аудио №3: English; AC3; 48 KHz; 384 Kbps; CBR; 6 ch
Субтитры: Russian

Раздача группы:Изображение

"MediaInfo"

Общее
Уникальный идентификатор : 313923482996290178023733764918871060612 (0xEC2B76AF772346EE77D1D5D8B12FF084)
Полное имя : Legends.Of.The.Fall.1994.HDTV.720p.[R.G.Daredevil].mkv
Формат : Matroska
Размер файла : 7,72 Гбайт
Продолжительность : 2 ч. 7 м.
Общий поток : 8672 Кбит/сек
Название фильма : Legends Of The Fall
Дата кодирования : UTC 2010-11-21 20:24:45
Программа кодирования : mkvmerge v3.2.0 ('Beginnings') built on Feb 14 2010 20:54:22
Библиотека кодирования : libebml v0.7.8 + libmatroska v0.8.1

Видео
Идентификатор : 1
Формат : AVC
Формат/Информация : Advanced Video Codec
Профиль формата : High@L3.1
Параметр CABAC формата : Да
Параметр ReFrames формата : 5 кадры
Параметры GOP формата : M=1, N=2
Идентификатор кодека : V_MPEG4/ISO/AVC
Продолжительность : 2 ч. 7 м.
Битрейт : 7169 Кбит/сек
Ширина : 1280 пикс.
Высота : 688 пикс.
Соотношение сторон : 1,860
Частота кадров : 25,000 кадр/сек
Цветовое пространство : YUV
Подвыборка цветности : 4:2:0
Битовая глубина : 8 бит
Тип развёртки : Прогрессивная
Бит/(Пиксели*Кадры) : 0.326
Размер потока : 6,38 Гбайт (83%)
Библиотека кодирования : x264 core 79 r1347 5ddd61b
Настройки программы : cabac=1 / ref=5 / deblock=1:-2:-1 / analyse=0x3:0x113 / me=umh / subme=9 / psy=1 / psy_rd=1.0:0.0 / mixed_ref=1 / me_range=24 / chroma_me=1 / trellis=1 / 8x8dct=1 / cqm=0 / deadzone=21,11 / chroma_qp_offset=-2 / threads=3 / nr=0 / decimate=1 / mbaff=0 / constrained_intra=0 / bframes=4 / b_pyramid=0 / b_adapt=1 / b_bias=0 / direct=1 / wpredb=1 / wpredp=2 / keyint=250 / keyint_min=25 / scenecut=40 / rc_lookahead=40 / rc=crf / mbtree=1 / crf=14.0 / qcomp=0.60 / qpmin=10 / qpmax=51 / qpstep=4 / ip_ratio=1.40 / aq=1:1.00
Язык : English
Основные цвета : BT.709-5, BT.1361, IEC 61966-2-4, SMPTE RP177
Характеристики трансфера : BT.709-5, BT.1361
Коэффициенты матрицы : BT.709-5, BT.1361, IEC 61966-2-4 709, SMPTE RP177

Аудио #1
Идентификатор : 2
Формат : DTS
Формат/Информация : Digital Theater Systems
Идентификатор кодека : A_DTS
Продолжительность : 2 ч. 7 м.
Вид битрейта : Постоянный
Битрейт : 755 Кбит/сек
Канал(ы) : 6 канала(ов)
Расположение каналов : Front: L C R, Side: L R, LFE
Частота : 48,0 КГц
Битовая глубина : 24 бит
Метод сжатия : С потерями
Задержка видео : 4 мс.
Размер потока : 687 Мбайт (9%)
Заголовок : RUS dub
Язык : Russian

Аудио #2
Идентификатор : 3
Формат : AC-3
Формат/Информация : Audio Coding 3
Профиль формата : Dolby Digital
Расширение режима : CM (complete main)
Идентификатор кодека : A_AC3
Продолжительность : 2 ч. 7 м.
Вид битрейта : Постоянный
Битрейт : 192 Кбит/сек
Канал(ы) : 2 канала(ов)
Расположение каналов : Front: L R
Частота : 48,0 КГц
Битовая глубина : 16 бит
Метод сжатия : С потерями
Задержка видео : 22 мс.
Размер потока : 175 Мбайт (2%)
Заголовок : RUS (mvo)
Язык : Russian

Аудио #3
Идентификатор : 4
Формат : AC-3
Формат/Информация : Audio Coding 3
Расширение режима : CM (complete main)
Идентификатор кодека : A_AC3
Продолжительность : 2 ч. 7 м.
Вид битрейта : Постоянный
Битрейт : 384 Кбит/сек
Канал(ы) : 6 канала(ов)
Расположение каналов : Front: L C R, Side: L R, LFE
Частота : 48,0 КГц
Битовая глубина : 16 бит
Метод сжатия : С потерями
Размер потока : 350 Мбайт (4%)
Язык : English

Текст
Идентификатор : 5
Формат : UTF-8
Идентификатор кодека : S_TEXT/UTF8
Идентификатор кодека/Информация : UTF-8 Plain Text
Язык : Russian
Свернуть
Изображение
"Скриншоты"

Изображение
Изображение
Изображение
Изображение
Изображение
Изображение
Изображение
Изображение
Изображение
Изображение
Свернуть
"Знаете ли Вы, что..."
  • На роль Тристана приглашали Джонни Деппа.
  • Слово fall в названии фильма означает не только «осень», но прямо намекает на библейское «грехопадение». Между тем, в ряде стран (в России, в частности) не нашли подобной же идиомы, и переводили название напрямую – как «Легенды осени».
Свернуть
Не в сети
Профиль  
Начать новую темуОтветить на тему  [ 1 сообщение ] 
Вы не можете начинать темы
Вы не можете отвечать на сообщения
Вы не можете редактировать свои сообщения
Вы не можете удалять свои сообщения