Правила форума

  • В этом разделе создание новых тем Запрещено.
  • Для создания новых тем пользуйтесь Корневым разделом DVD и HD фильмы.
Начать новую темуОтветить на тему  [ 1 сообщение ] 
Торрент файл
Размер: 6.1 GB • Зарегистрирован: 2 года 8 месяцев • Статус: Проверено
Скачан: 38 раз • Желающих скачать: 0 • Поблагодарили: 13 раз
 Раздают: 0  |  0 KB/s  ]   Качают: 0  |  0 KB/s  ] 
 Полного источника не было 5 месяцев 25 дней 
Сообщения
 Добавлено: 2014-03-30 03:14
DVD Release Group
Аватара пользователя
Стаж: 7 лет 1 месяц
Сообщений: 3549
Спасибок: 247055
Лайков: 1018
Лекарь: Ученик Авиценны

The Physician


Изображение


Год выпуска: 2013
Страна: Германия
Жанр: Драма, приключения
Продолжительность: 02:34:46
Перевод: Профессиональный (полное дублирование)
Режиссер: Филипп Штёльцль
В ролях: Том Пэйн, Бен Кингсли, Эмма Ригби, Стеллан Скарсгард, Оливье Мартинес, Элиас ЭмБарек, Майкл Джибсон, Стэнли Таунсенд, Майкл Маркус Морган, Адам Томас Райт
Описание: Англия, XI век. Мать десятилетнего Роба Коула умирает в страшных мучениях: никто не знает ни природы её болезни, ни лекарства против неё. Маленький Роб, потрясенный до глубины души, во что бы то ни стало стремится разгадать эту тайну.Ему суждено пройти долгий путь, от Англии до Персии, его учителями становятся сначала обыкновенный шарлатан Барбер, а потом — великий лекарь Авиценна. Мудрый учитель видит в Робе необыкновенный талант к медицине, но советует ему не спешить делать вещи, которые не соответствуют веку. Но Роб ни перед чем не останавливается в своем желании научиться спасать людей от смерти, и над его собственной жизнью нависает угроза, ведь он дважды пошел против предрассудков: использовал для научных исследований тело человека и полюбил женщину, отданную в жены другому.
Изображение
Качество: BDRip 720p
Формат: MKV
Видео кодек: H.264
Аудио кодек: AC3
Видео: 1280x540 24fps 5000kbps
Аудио: 48kHz 6ch 640kbps
"MediaInfo"
Format : Matroska
Format version : Version 2
File size : 6.10 GiB
Duration : 02:34:46
Overall bit rate : 5 639 Kbps
Encoded date : UTC 2014-03-29 16:14:56
Writing application : mkvmerge v5.8.0 ('No Sleep / Pillow') built on Sep 2 2012 15:37:04
Writing library : libebml v1.2.3 + libmatroska v1.3.0
Attachment : Yes

Video
ID : 1
Format : AVC
Format/Info : Advanced Video Codec
Format profile : High@L4.1
Format settings, CABAC : Yes
Format settings, ReFrames : 11 frames
Codec ID : V_MPEG4/ISO/AVC
Duration : 2h 34mn
Bit rate : 5 000 Kbps
Width : 1 280 pixels
Height : 540 pixels
Display aspect ratio : 2.40:1
Frame rate mode : Constant
Frame rate : 24.000 fps
Color space : YUV
Chroma subsampling : 4:2:0
Bit depth : 8 bits
Scan type : Progressive
Bits/(Pixel*Frame) : 0.301
Stream size : 5.28 GiB (87%)
Writing library : x264 core 138 r2358 9e941d1
Encoding settings : cabac=1 / ref=11 / deblock=1:-3:-3 / analyse=0x3:0x113 / me=umh / subme=11 / psy=1 / psy_rd=1.00:0.10 / mixed_ref=1 / me_range=32 / chroma_me=1 / trellis=2 / 8x8dct=1 / cqm=0 / deadzone=21,11 / fast_pskip=0 / chroma_qp_offset=-3 / threads=12 / lookahead_threads=2 / sliced_threads=0 / nr=0 / decimate=0 / interlaced=0 / bluray_compat=0 / constrained_intra=0 / bframes=8 / b_pyramid=2 / b_adapt=2 / b_bias=0 / direct=3 / weightb=1 / open_gop=0 / weightp=2 / keyint=240 / keyint_min=24 / scenecut=40 / intra_refresh=0 / rc_lookahead=40 / rc=2pass / mbtree=0 / bitrate=5000 / ratetol=1.0 / qcomp=0.60 / qpmin=0 / qpmax=69 / qpstep=4 / cplxblur=20.0 / qblur=0.5 / vbv_maxrate=50000 / vbv_bufsize=62500 / nal_hrd=none / ip_ratio=1.40 / pb_ratio=1.30 / aq=1:0.80
Language : English
Default : Yes
Forced : No

Audio
ID : 2
Format : AC-3
Format/Info : Audio Coding 3
Mode extension : CM (complete main)
Format settings, Endianness : Big
Codec ID : A_AC3
Duration : 2h 34mn
Bit rate mode : Constant
Bit rate : 640 Kbps
Channel(s) : 6 channels
Channel positions : Front: L C R, Side: L R, LFE
Sampling rate : 48.0 KHz
Bit depth : 16 bits
Compression mode : Lossy
Stream size : 709 MiB (11%)
Title : DUB
Language : Russian
Default : Yes
Forced : No

Menu
00:00:00.000 : :Chapter 01
00:00:04.000 : :Chapter 02
00:18:33.416 : :Chapter 03
00:38:54.750 : :Chapter 04
00:56:59.083 : :Chapter 05
01:21:29.916 : :Chapter 06
01:39:45.916 : :Chapter 07
02:05:39.000 : :Chapter 08
02:20:17.708 : :Chapter 09
Свернуть

"Скриншоты"
Изображение
Изображение
Изображение
Изображение
Свернуть
Не в сети
Профиль  
Начать новую темуОтветить на тему  [ 1 сообщение ] 
Вы не можете начинать темы
Вы не можете отвечать на сообщения
Вы не можете редактировать свои сообщения
Вы не можете удалять свои сообщения