Правила форума

  • В этом разделе создание новых тем Запрещено.
  • Для создания новых тем пользуйтесь Корневым разделом DVD и HD фильмы.
Начать новую темуОтветить на тему  [ Сообщений: 6 ] 
Торрент файл
Размер: 7.19 GB • Зарегистрирован: 2 года 8 месяцев • Статус: Проверено
Скачан: 700 раз • Желающих скачать: 0 • Поблагодарили: 109 раз
 Раздают: 0  |  0 KB/s  ]   Качают: 0  |  0 KB/s  ] 
 Полного источника не было 11 часов 
Сообщения
 Добавлено: 2014-03-29 10:48
Аватара пользователя
Стаж: 9 лет 1 месяц
Сообщений: 7983
Спасибок: 122213
Лайков: 1191
Лекарь: Ученик Авиценны / The Physician

«Через пески времени к свету»

Изображение


Год выпуска: 2013
Страна: Изображение Германия
Жанр: драма, приключения
Продолжительность: 02:34:41
Перевод: Профессиональный (полное дублирование) [Лицензия]


Режиссер: Филипп Штёльцль
Сценарий: Ян Бергер, Ноа Гордон
Продюсер: Вульф Бауэр, Нико Хофманн, Ахмед Абуноум
Оператор: Хаген Богданский
Композитор: Инго Френзель

В ролях: Том Пэйн, Бен Кингсли, Эмма Ригби, Стеллан Скарсгард, Оливье Мартинес, Элиас ЭмБарек, Майкл Джибсон, Стэнли Таунсенд, Майкл Маркус Морган, Адам Томас Райт

Описание: Англия, XI век. Мать десятилетнего Роба Коула умирает в страшных мучениях: никто не знает ни природы её болезни, ни лекарства против неё. Маленький Роб, потрясенный до глубины души, во что бы то ни стало стремится разгадать эту тайну.

Ему суждено пройти долгий путь, от Англии до Персии, его учителями становятся сначала обыкновенный шарлатан Барбер, а потом — великий лекарь Авиценна. Мудрый учитель видит в Робе необыкновенный талант к медицине, но советует ему не спешить делать вещи, которые не соответствуют веку. Но Роб ни перед чем не останавливается в своем желании научиться спасать людей от смерти, и над его собственной жизнью нависает угроза, ведь он дважды пошел против предрассудков: использовал для научных исследований тело человека и полюбил женщину, отданную в жены другому.


Изображение Изображение

Раздача группы: Изображение

Качество: BDRip (1080p)
Формат: Matroska
Видео: MPEG-4 AVC, 4500 Kбит/с, 1920x804, 24 кадр/с
Аудио №1: Русский (AC3, 48,0 КГц, 6 ch, 640 Кбит/c)
Аудио №2: Русский (DTS, 48,0 КГц, 6 ch, 1510 Кбит/c)

MediaInfo
Общее
Уникальный идентификатор : 171986211640337681864135661913843832868 (0x816356E99A212EAB80E232D892561824)
Полное имя : C:\Фильмы\The.Physician.2013.BDRip.1080p-MediaClub.mkv
Формат : Matroska
Версия формата : Version 4 / Version 2
Размер файла : 7,19 Гбайт
Продолжительность : 2 ч. 34 м.
Общий поток : 6646 Кбит/сек
Название фильма : -=MediaClub-kaspr=-
Дата кодирования : UTC 2014-03-29 06:00:41
Программа кодирования : mkvmerge v6.8.0 ('Theme for Great Cities') 64bit built on Mar 2 2014 21:34:26
Библиотека кодирования : libebml v1.3.0 + libmatroska v1.4.1

Видео
Идентификатор : 1
Формат : AVC
Формат/Информация : Advanced Video Codec
Профиль формата : High@L4.1
Параметр CABAC формата : Да
Параметр ReFrames формата : 4 кадра
Идентификатор кодека : V_MPEG4/ISO/AVC
Продолжительность : 2 ч. 34 м.
Битрейт : 4500 Кбит/сек
Ширина : 1920 пикселей
Высота : 804 пикселя
Соотношение сторон : 2,40:1
Режим частоты кадров : Постоянный
Частота кадров : 24,000 кадра/сек
Цветовое пространство : YUV
Субдискретизация насыщенности : 4:2:0
Битовая глубина : 8 бит
Тип развёртки : Прогрессивная
Бит/(Пиксели*Кадры) : 0.121
Размер потока : 4,72 Гбайт (66%)
Заголовок : -=MediaClub-kaspr=-
Библиотека кодирования : x264 core 142 r2409+42 04be48a tMod [8-bit@4:2:0 X86_64]
Настройки программы : cabac=1 / ref=4 / deblock=1:-3:-3 / analyse=0x3:0x113 / me=umh / subme=11 / psy=1 / fade_compensate=0.00 / psy_rd=1.00:0.20 / mixed_ref=1 / me_range=32 / chroma_me=1 / trellis=2 / 8x8dct=1 / cqm=0 / deadzone=21,11 / fast_pskip=0 / chroma_qp_offset=-3 / threads=12 / lookahead_threads=3 / sliced_threads=0 / nr=0 / decimate=0 / interlaced=0 / bluray_compat=0 / constrained_intra=0 / fgo=0 / bframes=12 / b_pyramid=2 / b_adapt=2 / b_bias=0 / direct=3 / weightb=1 / open_gop=0 / weightp=2 / keyint=240 / keyint_min=24 / scenecut=40 / intra_refresh=0 / rc=2pass / mbtree=0 / bitrate=4500 / ratetol=1.0 / qcomp=0.60 / qpmin=0:0:0 / qpmax=69:69:69 / qpstep=4 / cplxblur=20.0 / qblur=0.5 / ip_ratio=1.40 / pb_ratio=1.30 / aq=2:0.80 / aq-sensitivity=10.00 / aq-factor=1.00:1.00:1.00 / aq2=0 / aq3=0
Default : Да
Forced : Да

Аудио #1
Идентификатор : 2
Формат : AC-3
Формат/Информация : Audio Coding 3
Расширение режима : CM (complete main)
Параметр Endianness формата : Big
Идентификатор кодека : A_AC3
Продолжительность : 2 ч. 34 м.
Вид битрейта : Постоянный
Битрейт : 640 Кбит/сек
Каналы : 6 каналов
Расположение каналов : Front: L C R, Side: L R, LFE
Частота : 48,0 КГц
Битовая глубина : 16 бит
Метод сжатия : С потерями
Размер потока : 709 Мбайт (10%)
Заголовок : Дубляж (AC3)
Язык : Russian
Default : Да
Forced : Да

Аудио #2
Идентификатор : 3
Формат : DTS
Формат/Информация : Digital Theater Systems
Режим : 16
Параметр Endianness формата : Big
Идентификатор кодека : A_DTS
Продолжительность : 2 ч. 34 м.
Вид битрейта : Постоянный
Битрейт : 1509 Кбит/сек
Каналы : 6 каналов
Расположение каналов : Front: L C R, Side: L R, LFE
Частота : 48,0 КГц
Битовая глубина : 16 бит
Метод сжатия : С потерями
Размер потока : 1,63 Гбайт (23%)
Заголовок : Дубляж (DTS)
Язык : Russian
Default : Нет
Forced : Нет

Меню
00:00:00.000 : en:Chapter 01
00:00:04.000 : en:Chapter 02
00:18:33.416 : en:Chapter 03
00:38:54.750 : en:Chapter 04
00:56:59.083 : en:Chapter 05
01:21:29.916 : en:Chapter 06
01:39:45.916 : en:Chapter 07
02:05:39.000 : en:Chapter 08
02:20:17.708 : en:Chapter 09
Свернуть
Скриншоты
Изображение
Изображение
Изображение
Изображение
Свернуть
 AHTAPASEr нравится это.
Не в сети
Профиль  
 Добавлено: 2014-03-30 10:47 (спустя 23 часа)
Аватара пользователя
Стаж: 8 лет 9 месяцев
Сообщений: 13
Спасибок: 43
Отличный фильм! СПАСИБО!
Не в сети
Профиль  
 Добавлено: 2014-04-08 14:56 (спустя 9 дней)
Кинокомментатор
Аватара пользователя
Стаж: 9 лет 1 месяц
Сообщений: 1332
Лайков: 54
да да!) фильм очень таки хорош! единственное временами затянут) но опять же всё по делу! спокойный добротный фильм) качество!
смотреть стоит;) 7/10
Не в сети
Профиль  
 Добавлено: 2014-04-09 18:16 (спустя 1 день 3 часа)
Стаж: 9 лет 1 месяц
Сообщений: 94
шикарный фильм
Не в сети
Профиль  
 Добавлено: 2014-04-13 09:36 (спустя 3 дня)
Аватара пользователя
Стаж: 8 лет 2 месяца
Сообщений: 26
Спасибок: 4
Bronks
ну ну) шяс глянем)
Не в сети
Профиль  
 Добавлено: 2014-09-09 01:08 (спустя 4 месяца 25 дней)
Аватара пользователя
Стаж: 2 года 3 месяца
Сообщений: 1
отличное кино
Не в сети
Профиль  
Начать новую темуОтветить на тему  [ Сообщений: 6 ] 
Вы не можете начинать темы
Вы не можете отвечать на сообщения
Вы не можете редактировать свои сообщения
Вы не можете удалять свои сообщения