Правила форума

  • В этом разделе создание новых тем Запрещено.
  • Для создания новых тем пользуйтесь Корневым разделом DVD и HD фильмы.
Начать новую темуОтветить на тему  [ Сообщений: 2 ] 
Торрент файл
Размер: 4.37 GB • Зарегистрирован: 4 года 2 месяца • Статус: Проверено
Скачан: 27 раз • Желающих скачать: 0 • Поблагодарили: 17 раз
 Раздают: 0  |  0 KB/s  ]   Качают: 0  |  0 KB/s  ] 
 Полного источника не было 1 год 7 месяцев 
Сообщения
 Добавлено: 2012-09-16 23:04
Аватара пользователя
Стаж: 7 лет 4 месяца
Возраст: 21
Сообщений: 419
Спасибок: 12709
Лайков: 18
Изображение

Лемони Сникет: 33 несчастья / Lemony Snicket's A Series of Unfortunate Events



Год выпуска: 2004
Страна: США, Германия
Жанр: фэнтези, комедия, приключения, семейный
Продолжительность: 01:47:58
Перевод: Профессиональный (полное дублирование)
Субтитры: Английские (форсирующие), Русские(полные) , Аглийские (полные)

Режиссер: Брэд Силберлинг
Сценарий: Роберт Гордон, Дэниэл Хэндлер
Продюсер: Джим Ван Вик, Лори МакДональд, Уолтер Ф. Паркс
Оператор: Эммануэль Любецки
Композитор: Томас Ньюман
В ролях: Джим Керри, Лиам Эйкен, Эмили Браунинг, Кара Хоффман, Шелби Хоффман, Джуд Лоу, Тимоти Сполл, Кэтрин О’Хара, Билли Коннолли, Мэрил Стрип

Описание: В один скверный пасмурный день на юных Бодлеров — Вайолет, Клауса и их маленькую сестричку Солнышко — обрушились несчастья. Страшный пожар лишил их дома и любящих родителей. В жизни сирот появился опекун Граф Олаф, который, как оказалось, совсем не граф, а злой гений, актёр и мастер переодеваний, стремящийся завладеть наследством несчастных детишек…


Изображение

Мировая премьера: 16 декабря 2004
Релиз на DVD: 11 июня 2004, «Новый Диск»

Качество: BDRip 1080p (исходник Blu-ray Disc)
Формат: Matroska
Видео: 1920x1080, 5 412 Кбит/сек, 23.976 кадр/сек, AVC, x264, 16:9, 0.109 Бит/(Пиксели*Кадры)
Аудио: AC-3, 384 Кбит/сек, 6 канала(ов), 48,0 КГц

Изображение

Доп. информация:
Изображение Премия «Оскар» за Лучший грим. 2005г. Приз Австралийского киноинститута за женскую роль (Эмили Браунинг).

Свернуть
MediaInfo
Format : Matroska
Format version : Version 2
File size : 4.37 GiB
Duration : 1h 47mn
Overall bit rate : 5 796 Kbps
Movie name : Rip by Zlodey (NOLIMITS-TEAM.RU)
Encoded date : UTC 2012-06-17 15:09:09
Writing application : mkvmerge v5.6.0 ('Kenya Kane') built on May 27 2012 16:44:04
Writing library : libebml v1.2.3 + libmatroska v1.3.0

Video
ID : 1
Format : AVC
Format/Info : Advanced Video Codec
Format profile : High@L4.1
Format settings, CABAC : Yes
Format settings, ReFrames : 4 frames
Codec ID : V_MPEG4/ISO/AVC
Duration : 1h 47mn
Bit rate : 5 412 Kbps
Width : 1 920 pixels
Height : 1 080 pixels
Display aspect ratio : 16:9
Original display aspect ratio : 16:9
Frame rate : 23.976 fps
Color space : YUV
Chroma subsampling : 4:2:0
Bit depth : 8 bits
Scan type : Progressive
Bits/(Pixel*Frame) : 0.109
Stream size : 3.99 GiB (91%)
Title : Лемони Сникет: 33 несчастья (2004) BDRip1080 от NOLIMITS-TEAM.RU
Writing library : x264 core 125 r2200 999b753
Encoding settings : cabac=1 / ref=4 / deblock=1:-3:-2 / analyse=0x3:0x113 / me=umh / subme=11 / psy=1 / psy_rd=1.00:0.10 / mixed_ref=1 / me_range=32 / chroma_me=1 / trellis=2 / 8x8dct=1 / cqm=0 / deadzone=21,11 / fast_pskip=0 / chroma_qp_offset=-3 / threads=12 / lookahead_threads=2 / sliced_threads=0 / slices=4 / nr=0 / decimate=0 / interlaced=0 / bluray_compat=0 / constrained_intra=0 / bframes=5 / b_pyramid=2 / b_adapt=2 / b_bias=0 / direct=3 / weightb=1 / open_gop=0 / weightp=2 / keyint=240 / keyint_min=24 / scenecut=40 / intra_refresh=0 / rc_lookahead=60 / rc=2pass / mbtree=1 / bitrate=5412 / ratetol=2.0 / qcomp=0.60 / qpmin=0 / qpmax=51 / qpstep=4 / cplxblur=20.0 / qblur=0.5 / ip_ratio=1.40 / aq=1:1.00
Language : English
Default : Yes
Forced : No

Audio
ID : 2
Format : AC-3
Format/Info : Audio Coding 3
Mode extension : CM (complete main)
Format settings, Endianness : Big
Codec ID : A_AC3
Duration : 1h 47mn
Bit rate mode : Constant
Bit rate : 384 Kbps
Channel(s) : 6 channels
Channel positions : Front: L C R, Side: L R, LFE
Sampling rate : 48.0 KHz
Bit depth : 16 bits
Compression mode : Lossy
Stream size : 297 MiB (7%)
Title : Дубляж
Language : Russian
Default : Yes
Forced : No

Text #1
ID : 3
Format : UTF-8
Codec ID : S_TEXT/UTF8
Codec ID/Info : UTF-8 Plain Text
Title : Английские (форсирующие)
Language : English
Default : No
Forced : No

Text #2
ID : 4
Format : UTF-8
Codec ID : S_TEXT/UTF8
Codec ID/Info : UTF-8 Plain Text
Title : Английские (полные)
Language : English
Default : No
Forced : No

Text #3
ID : 5
Format : UTF-8
Codec ID : S_TEXT/UTF8
Codec ID/Info : UTF-8 Plain Text
Title : Русские (полные)
Language : Russian
Default : No
Forced : No

Menu
00:00:00.000 : en:00:00:00.000
00:06:49.534 : en:00:06:49.534
00:12:48.642 : en:00:12:48.642
00:20:24.890 : en:00:20:24.890
00:28:22.367 : en:00:28:22.367
00:36:31.063 : en:00:36:31.063
00:42:30.839 : en:00:42:30.839
00:48:05.757 : en:00:48:05.757
00:54:32.060 : en:00:54:32.060
01:03:02.028 : en:01:03:02.028
01:08:20.262 : en:01:08:20.262
01:14:42.603 : en:01:14:42.603
01:19:35.687 : en:01:19:35.687
01:25:51.688 : en:01:25:51.688
01:30:05.608 : en:01:30:05.608
01:35:59.170 : en:01:35:59.170
Свернуть
Скриншоты:

Изображение
Изображение
Изображение
Свернуть
Не в сети
Профиль  
 Добавлено: 2014-05-10 22:14 (спустя 1 год 7 месяцев)
Аватара пользователя
Стаж: 8 лет 4 месяца
Возраст: 28
Сообщений: 125
Лайков: 1
Помогите скачать!
Не в сети
Профиль  
Начать новую темуОтветить на тему  [ Сообщений: 2 ] 
Вы не можете начинать темы
Вы не можете отвечать на сообщения
Вы не можете редактировать свои сообщения
Вы не можете удалять свои сообщения