Правила форума

  • В этом разделе создание новых тем Запрещено.
  • Для создания новых тем пользуйтесь Корневым разделом DVD и HD фильмы.
Начать новую темуОтветить на тему  [ Сообщений: 6 ] 
Торрент файл
Размер: 2.47 GB • Зарегистрирован: 1 год 3 месяца • Статус: T Временный релиз
Скачан: 136 раз • Желающих скачать: 0 • Поблагодарили: 35 раз
 Раздают: 0  |  0 KB/s  ]   Качают: 0  |  0 KB/s  ] 
 Полного источника не было 9 дней 
Сообщения
 Добавлено: 2015-08-29 05:55
DVD Release Group
Аватара пользователя
Стаж: 7 лет 1 месяц
Сообщений: 3546
Спасибок: 246990
Лайков: 1018
Левша

Southpaw


Изображение


Год выпуска: 2015
Страна: США
Жанр: Драма, спорт, боевик, триллер
Продолжительность: 02:03:46
Перевод: Профессиональный (полное дублирование)
Режиссер: Антуан Фукуа
В ролях: Джейк Джилленхол, Рэйчел МакАдамс, Форест Уайтейкер, Наоми Харрис, Фифти Сент, Мигель Гомес, Бо Напп, Клер Фоли, Виктор Ортиц, Оона Лоренс, Скайлан Брукс, Доминик Колон, Дэвид Уэйлен, Адам Рэтклифф, Мишель Джонстон
Описание: У боксера Билли Хоупа все было прекрасно: звание чемпиона, красавица-жена и любимая дочка. Но фортуна отворачивается от него: при трагических обстоятельствах погибает любимая жена, дисквалификация на ринге, нулевые доходы, суд лишает его родительских прав… Хоуп должен отстоять звание чемпиона и вернуть дочь. Есть ли у Хоупа шансы на победу? Все решит его знаменитый хук левой…
Изображение
Sample:
http://sendfile.su/1150617
Качество: WEB-DL 720p
Формат: MKV
Видео кодек: H.264
Аудио кодек: AC3
Видео: 1280x720 23.98fps 2414kbps
Аудио: 48kHz 6ch 384kbps
"MediaInfo"
Формат : Matroska
Версия формата : Version 4 / Version 2
Размер файла : 2,47 Гбайт
Продолжительность : 2 ч. 3 м.
Режим общего битрейта : Переменный
Общий поток : 2855 Кбит/сек
Название фильма : Southpaw (2015)
Дата кодирования : UTC 2015-08-31 19:59:48
Программа кодирования : mkvmerge v6.9.1 ('Blue Panther') 64bit built on Apr 18 2014 18:23:38
Библиотека кодирования : libebml v1.3.0 + libmatroska v1.4.1

Видео
Идентификатор : 1
Формат : AVC
Формат/Информация : Advanced Video Codec
Профиль формата : High@L3.1
Параметр CABAC формата : Да
Параметр ReFrames формата : 5 кадров
Идентификатор кодека : V_MPEG4/ISO/AVC
Продолжительность : 2 ч. 3 м.
Вид битрейта : Переменный
Битрейт : 2414 Кбит/сек
Максимальный битрейт : 3750 Кбит/сек
Ширина : 1280 пикселей
Высота : 720 пикселей
Соотношение сторон : 2,40:1
Режим частоты кадров : Постоянный
Частота кадров : 23,976 кадра/сек
Цветовое пространство : YUV
Субдискретизация насыщенности : 4:2:0
Битовая глубина : 8 бит
Тип развёртки : Прогрессивная
Бит/(Пиксели*Кадры) : 0.109
Размер потока : 2,09 Гбайт (85%)
Заголовок : English NTSC WEB-DL 720p H264
Язык : English
Default : Да
Forced : Нет
Основные цвета : BT.709
Характеристики трансфера : BT.709
Коэффициенты матрицы : BT.709

Аудио
Идентификатор : 2
Формат : AC-3
Формат/Информация : Audio Coding 3
Расширение режима : CM (complete main)
Параметр Endianness формата : Big
Идентификатор кодека : A_AC3
Продолжительность : 2 ч. 3 м.
Вид битрейта : Постоянный
Битрейт : 384 Кбит/сек
Каналы : 6 каналов
Расположение каналов : Front: L C R, Side: L R, LFE
Частота : 48,0 КГц
Битовая глубина : 16 бит
Метод сжатия : С потерями
Размер потока : 340 Мбайт (13%)
Язык : Russian
Default : Да
Forced : Нет
Свернуть

"Скриншоты"
Изображение
Изображение
Изображение
Свернуть


Последний раз редактировалось rastor 2015-09-01 03:35, всего редактировалось 5 раз(а).
Не в сети
Профиль  
 Добавлено: 2015-08-29 14:04 (спустя 8 часов)
Стаж: 8 лет 1 месяц
Сообщений: 210
Спасибок: 1
Лайков: 3
Спасибо!!!
Не в сети
Профиль  
 Добавлено: 2015-08-29 18:01 (спустя 3 часа)
Стаж: 2 года 5 месяцев
Сообщений: 37
Лайков: 4
rastor отдуши)))давно ждал)))спасибо

Добавлено спустя 3 минуты:
ну поднажмите)))качает очень туго
Не в сети
Профиль  
 Добавлено: 2015-08-30 12:49 (спустя 18 часов)
Стаж: 8 лет 1 месяц
Сообщений: 210
Спасибок: 1
Лайков: 3
качество отличное,а вот фильм не очень.
Не в сети
Профиль  
 Добавлено: 2015-08-30 16:24 (спустя 3 часа)
Аватара пользователя
Стаж: 8 лет 7 месяцев
Сообщений: 671
Спасибок: 84
Лайков: 84
Сюжет - стандарт. Джейк Джилленхол - супер актер. Идет на "Оскара" думаю.
Не в сети
Профиль  
 Добавлено: 2015-09-07 09:10 (спустя 7 дней)
Аватара пользователя
Стаж: 8 лет 10 месяцев
Возраст: 36
Сообщений: 440
Спасибок: 5166

ship:

качество отличное,а вот фильм не очень.
Судя по размеру качество режет глаз :co_ol: :-D
Не в сети
Профиль  
Начать новую темуОтветить на тему  [ Сообщений: 6 ] 
Вы не можете начинать темы
Вы не можете отвечать на сообщения
Вы не можете редактировать свои сообщения
Вы не можете удалять свои сообщения