Правила форума

  • В этом разделе создание новых тем Запрещено.
  • Для создания новых тем пользуйтесь Корневым разделом DVD и HD фильмы.
Начать новую темуОтветить на тему  [ Сообщений: 2 ] 
Торрент файл
Размер: 9.6 GB • Зарегистрирован: 4 года 10 месяцев • Статус: Проверено
Скачан: 95 раз • Желающих скачать: 0 • Поблагодарили: 24 раза
 Раздают: 0  |  0 KB/s  ]   Качают: 0  |  0 KB/s  ] 
 Полного источника не было 2 года 7 месяцев 
Сообщения
 Добавлено: 2012-01-21 01:36
Руководитель релиз-группы
Аватара пользователя
Стаж: 8 лет 6 месяцев
Возраст: 25
Сообщений: 7578
Спасибок: 51914
Лайков: 14
Изображение

Лица в толпе / Faces in the Crowd


Год выпуска: 2011
Страна: Канада, Франция
Слоган: «She saw the killer's face, but it keeps changing...»

Жанр: триллер, драма
Продолжительность: 01:42:32
Перевод: Профессиональный (многоголосый закадровый)

Режиссер: Жюльен Манья

В ролях: Милла Йовович, Джулиан МакМэхон, Дэвид Атракчи, Майкл Шэнкс, Марианна Фэйтфулл, Сара Уэйн Кэллис, Сандрин Холт, Валентина Варгас, Адам Харингтон, Энтони Лемке, Стивен Хусар, Кирстен Робек
Описание: Сюжет повествует о страшной трагедии, которая произошла в жизни молодой женщины. После нападения серийного убийцы она чудом осталась жива. Однако сложная травма головы сделала её фактически беспомощной. Она совсем не запоминает лица людей, и как только они исчезают из ее поля зрения, они стираются из ее памяти навсегда.
Релиз: Изображение
Качество: BDRip 1080p R5
Формат: MKV
Видео: MPEG4 Video (H264) 1920x800 23.98fps 11.5 Mbps
Аудио: AC3 48000Hz 6ch 384 Kbps
Аудио: DTS 48000Hz 6ch 1510 Kbps
Субтитры: Русские, Английские

"Скриншоты"

Изображение
Изображение
Изображение
Свернуть
"MediaInfo"
General
Unique ID                        : 182048743722659605434932457723532867667 (0x88F5500C474AB9619A4C08285DE6F853)
Complete name                    : E:\Faces in the Crowd.2011.BDRip.1080p.Uniongang.tv.mkv
Format                           : Matroska
File size                        : 9.60 GiB
Duration                         : 1h 42mn
Overall bit rate                 : 13.4 Mbps
Movie name                       : --SCHUMAHER--
Encoded date                     : UTC 2012-01-20 21:27:57
Writing application              : mkvmerge v4.0.0 ('The Stars were mine') сборка от Jun 18 2010 16:54:49
Writing library                  : libebml v1.0.0 + libmatroska v1.0.0

Video
ID                               : 1
Format                           : AVC
Format/Info                      : Advanced Video Codec
Format profile                   : High@L4.1
Format settings, CABAC           : Yes
Format settings, ReFrames        : 5 frames
Codec ID                         : V_MPEG4/ISO/AVC
Duration                         : 1h 42mn
Bit rate                         : 11.5 Mbps
Width                            : 1 920 pixels
Height                           : 800 pixels
Display aspect ratio             : 2.40:1
Frame rate                       : 23.976 fps
Color space                      : YUV
Chroma subsampling               : 4:2:0
Bit depth                        : 8 bits
Scan type                        : Progressive
Bits/(Pixel*Frame)               : 0.313
Stream size                      : 8.06 GiB (84%)
Title                            : Faces in the Crowd - BDRip 1080p Uniongang.tv
Writing library                  : x264 core 116 r2074 2641b9e
Encoding settings                : cabac=1 / ref=5 / deblock=1:-3:-3 / analyse=0x3:0x113 / me=umh / subme=10 / psy=1 / psy_rd=1.05:0.10 / mixed_ref=1 / me_range=32 / chroma_me=1 / trellis=2 / 8x8dct=1 / cqm=0 / deadzone=21,11 / fast_pskip=0 / chroma_qp_offset=-2 / threads=8 / sliced_threads=0 / nr=0 / decimate=1 / interlaced=0 / bluray_compat=0 / constrained_intra=0 / bframes=6 / b_pyramid=2 / b_adapt=2 / b_bias=0 / direct=3 / weightb=1 / open_gop=0 / weightp=2 / keyint=250 / keyint_min=23 / scenecut=40 / intra_refresh=0 / rc_lookahead=50 / rc=2pass / mbtree=1 / bitrate=11520 / ratetol=1.0 / qcomp=0.70 / qpmin=0 / qpmax=69 / qpstep=4 / cplxblur=20.0 / qblur=0.5 / vbv_maxrate=45000 / vbv_bufsize=40000 / nal_hrd=none / ip_ratio=1.40 / aq=2:0.80
Language                         : English

Audio #1
ID                               : 2
Format                           : AC-3
Format/Info                      : Audio Coding 3
Mode extension                   : CM (complete main)
Muxing mode                      : Header stripping
Codec ID                         : A_AC3
Duration                         : 1h 42mn
Bit rate mode                    : Constant
Bit rate                         : 384 Kbps
Channel(s)                       : 6 channels
Channel positions                : Front: L C R, Side: L R, LFE
Sampling rate                    : 48.0 KHz
Bit depth                        : 16 bits
Compression mode                 : Lossy
Stream size                      : 282 MiB (3%)
Title                            : 384 Kbps - R5 (6ch)
Language                         : Russian

Audio #2
ID                               : 3
Format                           : DTS
Format/Info                      : Digital Theater Systems
Muxing mode                      : Header stripping
Codec ID                         : A_DTS
Duration                         : 1h 42mn
Bit rate mode                    : Constant
Bit rate                         : 1 510 Kbps
Channel(s)                       : 6 channels
Channel positions                : Front: L C R, Side: L R, LFE
Sampling rate                    : 48.0 KHz
Bit depth                        : 16 bits
Compression mode                 : Lossy
Delay relative to video          : 11ms
Stream size                      : 1.08 GiB (11%)
Title                            : 1510 Kbps (6ch)
Language                         : English

Text #1
ID                               : 4
Format                           : UTF-8
Codec ID                         : S_TEXT/UTF8
Codec ID/Info                    : UTF-8 Plain Text
Language                         : Russian

Text #2
ID                               : 5
Format                           : UTF-8
Codec ID                         : S_TEXT/UTF8
Codec ID/Info                    : UTF-8 Plain Text
Language                         : English

Menu
00:00:00.000                     : en:
00:08:09.989                     : en:
00:16:39.373                     : en:
00:25:55.554                     : en:
00:33:59.954                     : en:
00:43:06.041                     : en:
00:53:14.399                     : en:
01:01:32.438                     : en:
01:11:08.430                     : en:
01:19:38.857                     : en:
01:27:50.265                     : en:
01:37:10.950                     : en:
Свернуть
Не в сети
Профиль  
 Добавлено: 2012-01-21 17:42 (спустя 16 часов)
Модератор
Аватара пользователя
Стаж: 8 лет 10 месяцев
Возраст: 27
Сообщений: 1478
Спасибок: 1768
Лайков: 1
Рус сабы полные надеюсь?
Не в сети
Профиль  
Начать новую темуОтветить на тему  [ Сообщений: 2 ] 
Вы не можете начинать темы
Вы не можете отвечать на сообщения
Вы не можете редактировать свои сообщения
Вы не можете удалять свои сообщения